Торрент файл
скачать торрент магнет ссылка Добавлен: 12 мар 2016, 12:36
Размер: 1.42 ГБ
Сидеров: 1
Личеров: 0
Автор

СообщениеДобавлено: 12 мар 2016, 12:36 

Не в сети
Супермодератор
Аватара пользователя
Дата регистрации:
15 фев 2012, 16:44
Возраст: 27
Спасибо: 5143 / 2090
Сообщения: 17495
Страна: США
Жанр: боевик
Год выпуска: 1987
Продолжительность: 01:32:11

Перевод: Авторский (одноголосый закадровый) C.Визгунов
Cубтитры: нет
Режиссер: Роберт Борис / Robert Boris

В ролях: Мартин Коув, Села Уорд, Ронни Кокс, Берни Кейси, Джозеф Кампанелла, Сун-Тек Он, Жан Ган Бойд, Дэвид Фроман, Сара Дуглас

Описание: Ветеран войны во Вьетнаме расследует убийство своего соратника-вьетнамца и его семьи. Вина лежит на бывшем вьетнамском генерале, а ныне крупном американском бизнесмене-мафиози. Рукопашные бои, перестрелки, кровавые сцены делают развитие сюжета в фильме динамичным и напряженным.

Доп. информация: За предоставленный рип благодарим Ledy_X
"Спасибы" просьба ПИСАТЬ в теме, тем самым вы продлеваете жизнь раздаче.

Релиз

Качество видео: HDTVRip [Исходник 1080i]
Формат видео: AVI
Видео: 720x400 (1.80:1), 25 fps, XviD build 50 ~1999 kbps avg, 0.28 bit/pixel
Аудио: 48 kHz, AC3 Dolby Digital, 2/0 (L,R) ch, ~192 kbps
Правосудие Стила - Steele Justice [Rip by Ledy_X].avi
Format : AVI
Format/Info : Audio Video Interleave
File size : 1.42 GiB
Duration : 1h 32mn
Overall bit rate : 2 201 Kbps
Movie name : Правосудие Стила - Steele Justice [Rip by Ledy_X]
Director : Rip by Ledy_X
Writing application : VirtualDubMod 1.5.10.2 (build 2540/release)
Copyright : Edich2
Comment : RuTracker.org

Video
ID : 0
Format : MPEG-4 Visual
Format profile : Advanced Simple@L5
Format settings, BVOP : 2
Format settings, QPel : No
Format settings, GMC : No warppoints
Format settings, Matrix : Custom
Codec ID : XVID
Codec ID/Hint : XviD
Duration : 1h 32mn
Bit rate : 2 000 Kbps
Width : 720 pixels
Height : 400 pixels
Display aspect ratio : 16:9
Frame rate : 25.000 fps
Color space : YUV
Chroma subsampling : 4:2:0
Bit depth : 8 bits
Scan type : Progressive
Compression mode : Lossy
Bits/(Pixel*Frame) : 0.278
Stream size : 1.29 GiB (91%)
Writing library : XviD 1.2.1 (UTC 2008-12-04)

Audio
ID : 1
Format : AC-3
Format/Info : Audio Coding 3
Mode extension : CM (complete main)
Format settings, Endianness : Big
Codec ID : 2000
Duration : 1h 31mn
Bit rate mode : Constant
Bit rate : 192 Kbps
Channel count : 2 channels
Channel positions : Front: L R
Sampling rate : 48.0 KHz
Bit depth : 16 bits
Compression mode : Lossy
Stream size : 126 MiB (9%)
Alignment : Split accross interleaves
Interleave, duration : 40 ms (1.00 video frame)
Interleave, preload duration : 500 ms






_________________



реклама партнёра


Вернуться к началу
 Профиль Отправить личное сообщение  
 
   Похожие торренты   Автор   Торрент   Размер 
В этой теме нет новых непрочитанных сообщений. Сладкое правосудие / Sweet Justice [Боевик, 1992] DVDRip, Avo

salma3

4 | 1

1.33 ГБ

В этой теме нет новых непрочитанных сообщений. Недооформлен Снял красивую тетю / Hard for Steele (Jade Steele) (2014) SiteRip Данный торрент является блокированным, причина: недооформленный торрент

friizze

237 | 33

417.82 МБ

В этой теме нет новых непрочитанных сообщений. Дикая штучка / Wild Thing [Боевик, триллер, 1987] HDTVRip, Avo

salma3

1 | 0

1.42 ГБ

В этой теме нет новых непрочитанных сообщений. Победитель получает всё / Winners Take All [Боевик, приключения, спорт, 1987] HDTVRip, Dvo

salma3

22 | 5

1.51 ГБ

В этой теме нет новых непрочитанных сообщений. Сладкая месть / Sweet Revenge [боевик, драма, приключения, 1987] HDTVRip, Dvo [НТВ+]

salma3

8 | 7

1.36 ГБ

В этой теме нет новых непрочитанных сообщений. Амстердамский кошмар / Amsterdamned [ужасы, боевик, триллер, 1987] HDTVRip 720p, Dvo

salma3

23 | 9

4.88 ГБ

В этой теме нет новых непрочитанных сообщений. Американский ниндзя 2: Схватка / American Ninja 2: The Confrontation [Боевик, 1987] HDTVRip 1080p, Mvo+Avo

salma3

25 | 4

7.78 ГБ


Начать новую тему Ответить на тему  [ 1 сообщение ] 




Для Мосгорсуда, Роскомнадзора и рекламодателей:: mosgorsud-torrent[собачка]yandex.ru