Торрент файл
скачать торрент магнет ссылка Добавлен: 12 мар 2016, 12:34
Размер: 1.42 ГБ
Сидеров: 1
Личеров: 0
Статус: (salma3)
Автор

СообщениеДобавлено: 12 мар 2016, 12:34 

Не в сети
Супермодератор
Аватара пользователя
Дата регистрации:
15 фев 2012, 16:44
Возраст: 27
Спасибо: 5121 / 2089
Сообщения: 17296
Страна: США
Жанр: Боевик, триллер
Год выпуска: 1987
Продолжительность: 01:28:15

Перевод: Авторский (одноголосый закадровый) С.Визгунов
Cубтитры: нет
Режиссер: Макс Рид / Max Reid

В ролях: Роберт Неппер, Кэтлин Куинлен, Роберт Дави, Мори Чайкин, Бетти Бакли, Гийом Лемай-Тивьерж, Роберт Беднарский, Кларк Джонсон, Шон Хьюит, Тедди Эбнер

Описание: Его звали не Бэтмен и не Супермен. Иногда его звали просто «Дикая штучка». Он слышал все звуки ночного города и умел понимать их. Дикарь жил где-то на чердаках и крышах нью-йоркских небоскребов, но никто точно не знал, где именно. Он приходил на помощь тем, кто попадал в беду, но никто точно не знал, откуда он появляется каждый раз. Он вставал на пути преступности. И он точно знал, что до конца своих дней будет мстить за смерть родителей, ставших свидетелями бандитской разборки и потому безжалостно убитых.

Доп. информация: За предоставленный рип благодарим Ledy_X
"Спасибы" просьба ПИСАТЬ в теме, тем самым вы продлеваете жизнь раздаче.

Релиз

Качество видео: HDTVRip [Исходник 1080i]
Формат видео: AVI
Видео: 720x384 (1.88:1), 25 fps, XviD build 50 ~2099 kbps avg, 0.30 bit/pixel
Аудио: 48 kHz, AC3 Dolby Digital, 2 ch, ~192.00 kbps avg
Дикая штучка - Wild Thing [by Edich].avi
Format : AVI
Format/Info : Audio Video Interleave
File size : 1.42 GiB
Duration : 1h 28mn
Overall bit rate : 2 302 Kbps
Movie name : Дикая штучка - Wild Thing [by Edich]
Director : Rip by Ledy_X
Writing application : Nandub v1.0rc2
Copyright : Edich2
Comment : RuTarcker.org

Video
ID : 0
Format : MPEG-4 Visual
Format profile : Advanced Simple@L5
Format settings, BVOP : 2
Format settings, QPel : No
Format settings, GMC : No warppoints
Format settings, Matrix : Custom
Codec ID : XVID
Codec ID/Hint : XviD
Duration : 1h 28mn
Bit rate : 2 100 Kbps
Width : 720 pixels
Height : 384 pixels
Display aspect ratio : 1.85:1
Frame rate : 25.000 fps
Color space : YUV
Chroma subsampling : 4:2:0
Bit depth : 8 bits
Scan type : Progressive
Compression mode : Lossy
Bits/(Pixel*Frame) : 0.304
Stream size : 1.29 GiB (91%)
Writing library : XviD 1.2.1 (UTC 2008-12-04)

Audio
ID : 1
Format : AC-3
Format/Info : Audio Coding 3
Mode extension : CM (complete main)
Format settings, Endianness : Big
Codec ID : 2000
Duration : 1h 28mn
Bit rate mode : Constant
Bit rate : 192 Kbps
Channel(s) : 2 channels
Channel positions : Front: L R
Sampling rate : 48.0 KHz
Bit depth : 16 bits
Compression mode : Lossy
Delay relative to video : 6s 0ms
Stream size : 121 MiB (8%)
Alignment : Split accross interleaves
Interleave, duration : 40 ms (1.00 video frame)
Interleave, preload duration : 500 ms




_________________



реклама партнёра


Вернуться к началу
 Профиль Отправить личное сообщение  
 
   Похожие торренты   Автор   Торрент   Размер 
В этой теме нет новых непрочитанных сообщений. Дикая штучка / Wild Target [Боевик, комедия, драма, криминал, 2010] BDRip-AVC, Mvo+Sub [Лицензия]

salma3

254 | 11

2.18 ГБ

В этой теме нет новых непрочитанных сообщений. Дикая штучка / Something Wild [комедия, 1986] BDRip 720p, Dvo+Avo+Sub

salma3

69 | 22

4.74 ГБ

В этой теме нет новых непрочитанных сообщений. Дикая река / The River Wild [Триллер, криминал, приключения, боевик, 1994] BDRip 720p, 2Mvo+2Avo+Sub

salma3

27 | 3

7.17 ГБ

В этой теме нет новых непрочитанных сообщений. Дикая Бразилия / Wild Untamed Brazil / серии 1-5 из 5 [документальный, 2014] HDTVRip, Dub

salma3

31 | 4

2.68 ГБ

В этой теме нет новых непрочитанных сообщений. Дикая река / The River Wild [триллер, криминал, приключения, 1994] BDRip-AVC, Mvo+Sub

salma3

34 | 11

1.45 ГБ

В этой теме нет новых непрочитанных сообщений. Дикая / Wild (Жан-Марк Валле) [Драма, биография, 2014] HDRip, dvo

Dracon

1391 | 54

1.37 ГБ

В этой теме нет новых непрочитанных сообщений. Дикая / Wild (Жан-Марк Валле) [2014, Драма, биография, BDRip] Sub

Nickolas3435

577 | 115

1.49 ГБ


Начать новую тему Ответить на тему  [ 1 сообщение ] 




Для Мосгорсуда, Роскомнадзора и рекламодателей:: mosgorsud-torrent[собачка]yandex.ru