Торрент файл
скачать торрент магнет ссылка Добавлен: 11 мар 2016, 22:37
Размер: 2.18 ГБ
Сидеров: 2
Личеров: 0
Статус: (salma3)
Автор

СообщениеДобавлено: 11 мар 2016, 22:37 

Не в сети
Супермодератор
Аватара пользователя
Дата регистрации:
15 фев 2012, 16:44
Возраст: 27
Спасибо: 5121 / 2089
Сообщения: 17282
Око за око / An Eye for an Eye

Год выпуска: 1981
Жанр: боевик, триллер, криминал, приключения
Режиссер: Стив Карвер / Steve Carver

В ролях: Чак Норрис, Кристофер Ли, Ричард Раундтри, Мэтт Кларк, Мако, Мэгги Купер, Розалинд Чао, Профессор Тору Танака, Стюарт Пэнкин, Терри Кайзер

О фильме:
После гибели своего напарника полицейский из отдела по борьбе с наркотиками Шон Кейн вынужден уйти в отставку. Но когда убивают тележурналистку Линду, подругу его погибшего товарища, Кейн начинает собственное расследование.
Он выясняет, что убийства имеют прямое отношение к тайным операциям с наркотиками, которые проводят гонконгские триады. Узнав, что в криминальном бизнесе замешаны и некоторые из его коллег-полицейских, Кейн берет правосудие в свои руки и решает сам, в одиночку, разобраться с преступниками…

Страна: США
Продолжительность: 01:45:04
Перевод1: Профессиональный (многоголосый, закадровый) [R5]
Перевод2: Профессиональный (двухголосый, закадровый) [Екатеринбург Арт]

Файл
Качество: BDRip
Формат файла: AVI
Видео кодек: XviD
Аудио кодек: AC3
Видео: 704x384 (1.83:1), 23,976 fps, XviD build 65 ~2133 kbps avg, 0.33 bit/pixel
Аудио01: 48 kHz, AC3 Dolby Digital, 3/2 (L,C,R,l,r) + LFE ch, ~448.00 kbps avg mvo
Аудио02: 48 kHz, AC3 Dolby Digital, 2/0 (L,R), ~192.00 kbps avg [dvo]
Аудио03: 48 kHz, AC3 Dolby Digital, 2/0 (L,R), ~192.00 kbps avg [eng]


Семпл

Формат : AVI
Формат/Информация : Audio Video Interleave
Профиль формата : OpenDML
Размер файла : 2,18 Гбайт
Продолжительность : 1 ч. 45 м.
Общий поток : 2972 Кбит/сек
Название фильма : Око за око / An Eye for an Eye (1981) BDRip
Режиссёр : sociolog_melvas
Жанр : боевик, триллер, криминал
Программа кодирования : VirtualDubMod 1.5.10.2 (build 2540/release)
Правообладатель : HQCLUB
Примечание : 09.03.2016

Видео
Идентификатор : 0
Формат : MPEG-4 Visual
Профиль формата : Advanced Simple@L5
Параметр BVOP формата : 1
Параметр QPel формата : Нет
Параметр GMC формата : Без точки перехода
Параметр матрицы формата : Выборочная
Идентификатор кодека : XVID
Идентификатор кодека/Подсказка : XviD
Продолжительность : 1 ч. 45 м.
Битрейт : 2116 Кбит/сек
Ширина : 704 пикселя
Высота : 384 пикселя
Соотношение сторон : 1,85:1
Частота кадров : 23,976 кадра/сек
Цветовое пространство : YUV
Субдискретизация насыщенности : 4:2:0
Битовая глубина : 8 бит
Тип развёртки : Прогрессивная
Метод сжатия : С потерями
Бит/(Пиксели*Кадры) : 0.326
Размер потока : 1,55 Гбайт (71%)
Библиотека кодирования : XviD 65

Аудио #1
Идентификатор : 1
Формат : AC-3
Формат/Информация : Audio Coding 3
Расширение режима : CM (complete main)
Параметр Endianness формата : Big
Идентификатор кодека : 2000
Продолжительность : 1 ч. 45 м.
Вид битрейта : Постоянный
Битрейт : 448 Кбит/сек
Каналы : 6 каналов
Расположение каналов : Front: L C R, Side: L R, LFE
Частота : 48,0 КГц
Битовая глубина : 16 бит
Метод сжатия : С потерями
Размер потока : 337 Мбайт (15%)
Выравнивание : Разделение по промежуткам
Продолжительность промежутка : 42 мс. (1,00 видеокадр)
Время предзагрузки промежутка : 500 мс.

Аудио #2
Идентификатор : 2
Формат : AC-3
Формат/Информация : Audio Coding 3
Расширение режима : CM (complete main)
Параметр Endianness формата : Big
Идентификатор кодека : 2000
Продолжительность : 1 ч. 45 м.
Вид битрейта : Постоянный
Битрейт : 192 Кбит/сек
Каналы : 2 канала
Расположение каналов : Front: L R
Частота : 48,0 КГц
Битовая глубина : 16 бит
Метод сжатия : С потерями
Размер потока : 144 Мбайт (6%)
Выравнивание : Разделение по промежуткам
Продолжительность промежутка : 42 мс. (1,00 видеокадр)
Время предзагрузки промежутка : 500 мс.

Аудио #3
Идентификатор : 3
Формат : AC-3
Формат/Информация : Audio Coding 3
Расширение режима : CM (complete main)
Параметр Endianness формата : Big
Идентификатор кодека : 2000
Продолжительность : 1 ч. 45 м.
Вид битрейта : Постоянный
Битрейт : 192 Кбит/сек
Каналы : 2 канала
Расположение каналов : Front: L R
Частота : 48,0 КГц
Битовая глубина : 16 бит
Метод сжатия : С потерями
Размер потока : 144 Мбайт (6%)
Выравнивание : Разделение по промежуткам
Продолжительность промежутка : 42 мс. (1,00 видеокадр)
Время предзагрузки промежутка : 500 мс.

Релиз: Автор: sociolog_melvas


_________________



реклама партнёра


Вернуться к началу
 Профиль Отправить личное сообщение  
 
   Похожие торренты   Автор   Торрент   Размер 
В этой теме нет новых непрочитанных сообщений. Око за око / An Eye for an Eye [Боевик, триллер, криминал, 1981] BDRip-AVC, Mvo

salma3

19 | 0

1.46 ГБ

В этой теме нет новых непрочитанных сообщений. Око за око / An Eye for an Eye [боевик, триллер, криминал, 1981] BDRip 1080p, 4Avo+Mvo+Sub

salma3

22 | 3

8.59 ГБ

В этой теме нет новых непрочитанных сообщений. Чужая земля / Outland [ фантастика, боевик, триллер, криминал, 1981] BDRip 1080p, Dub+Dvo+Sub

salma3

56 | 6

7.75 ГБ

В этой теме нет новых непрочитанных сообщений. Безумный Макс 2: Воин дороги / Mad Max 2 [фантастика, боевик, триллер, приключения, 1981] BDRip-AVC, Dub+Mvo+Sub

salma3

87 | 6

1.45 ГБ

В этой теме нет новых непрочитанных сообщений. Невезучие / La chevre [комедия, криминал, приключения, 1981] BDRip 720p, Dub+Mvo+Dvo+Sub

salma3

16 | 3

5.31 ГБ

В этой теме нет новых непрочитанных сообщений. Невезучие / La chèvre [Комедия, криминал, приключения, 1981] BDRip 1080p, Dub+Mvo+Dvo+Sub

salma3

42 | 2

7.65 ГБ

В этой теме нет новых непрочитанных сообщений. За шкуру полицейского / Pour la peau d'un flic [боевик, мелодрама, криминал, 1981] BDRip 720p, Mvo+Sub

salma3

71 | 61

5.93 ГБ


Начать новую тему Ответить на тему  [ 1 сообщение ] 




Для Мосгорсуда, Роскомнадзора и рекламодателей:: mosgorsud-torrent[собачка]yandex.ru