Торрент файл
скачать торрент магнет ссылка Добавлен: 11 мар 2016, 12:50
Размер: 1.07 ГБ
Сидеров: 1
Личеров: 0
Статус: (salma3)
Автор

СообщениеДобавлено: 11 мар 2016, 12:50 

Не в сети
Супермодератор
Аватара пользователя
Дата регистрации:
15 фев 2012, 16:44
Возраст: 27
Спасибо: 5139 / 2089
Сообщения: 17411
Страна: Чехия, Канада
Жанр: Боевик
Год выпуска: 1997
Продолжительность: 1:38:04

Перевод: Авторский (одноголосый закадровый) С.Визгунов
Режиссер: Роберт Ли / Robert Lee

В ролях: Джадж Райнхолд, Кэрол Олт, Майкл Саразин, Карел Роден, Катерина Брозова, Роберт Рассел, Терри Барклай, Шон Фуллер, Ричард То, Стивен Фишер

Описание: Джек Уальд — крутой полицейский, одержимый идеей поймать известного террориста-наемника Ганса Беккера. По секретным сведениям, Беккер собирается захватить поезд. С помощью своего друга, виртуозного пилота вертолета, Джеку удается догнать убегающий поезд где-то в районе Скалистых Гор. Поезд въезжает в туннель, раздается взрыв и все, включая Джека, оказываются запертыми в ловушке.
Безжалостный Беккер собирается затопить туннель, и есть лишь один человек, способный помешать его кровавым планам…

Доп. информация: За звуковую дорожку спасибо Glowamy

Сэмпл: https://www.sendspace.com/file/s93oxq
Качество видео: DVDRip
Формат видео: AVI

Видео: XviD , 640x464 (1.38:1) ,25.000 fps , 1 360 Kbps
Аудио: AC3 , 48 kHz , 192.00 kbps avg , 2/0 (L,R) ch

Complete name Заложники 2 1996.avi
Format : AVI
Format/Info : Audio Video Interleave
File size : 1.07 GiB
Duration : 1h 38mn
Overall bit rate : 1 562 Kbps
Writing application : VirtualDubMod 1.5.10.2 (build 2540/release)
Writing library : VirtualDub build 35491/release

Video
ID : 0
Format : MPEG-4 Visual
Format profile : Advanced Simple@L5
Format settings, BVOP : 1
Format settings, QPel : No
Format settings, GMC : No warppoints
Format settings, Matrix : Custom
Codec ID : XVID
Codec ID/Hint : XviD
Duration : 1h 38mn
Bit rate : 1 360 Kbps
Width : 640 pixels
Height : 464 pixels
Display aspect ratio : 1.379
Frame rate : 25.000 fps
Color space : YUV
Chroma subsampling : 4:2:0
Bit depth : 8 bits
Scan type : Progressive
Compression mode : Lossy
Bits/(Pixel*Frame) : 0.183
Stream size : 954 MiB (87%)
Writing library : XviD 1.2.1 (UTC 2008-12-04)

Audio
ID : 1
Format : AC-3
Format/Info : Audio Coding 3
Mode extension : CM (complete main)
Format settings, Endianness : Big
Codec ID : 2000
Duration : 1h 38mn
Bit rate mode : Constant
Bit rate : 192 Kbps
Channel(s) : 2 channels
Channel positions : Front: L R
Sampling rate : 48.0 KHz
Frame rate : 31.250 fps (1536 spf)
Compression mode : Lossy
Stream size : 135 MiB (12%)
Alignment : Aligned on interleaves
Interleave, duration : 40 ms (1.00 video frame)
Interleave, preload duratio : 512 ms


_________________



реклама партнёра


Вернуться к началу
 Профиль Отправить личное сообщение  
 
   Похожие торренты   Автор   Торрент   Размер 
В этой теме нет новых непрочитанных сообщений. Заложники / Take [Триллер, драма, криминал, 2007] BDRip 1080p, Dvo

salma3

31 | 0

7.78 ГБ

В этой теме нет новых непрочитанных сообщений. Заложники / Hostages / 1 сезон 1-15 серии из 15 [триллер, драма, 2013] WEB-DLRip, Mvo

salma3

17 | 5

7.68 ГБ

В этой теме нет новых непрочитанных сообщений. Динамит / T.N.T. [Боевик, 1997] DVDRip, Mvo+Avo

salma3

32 | 4

1.46 ГБ

В этой теме нет новых непрочитанных сообщений. Заложники / Kapringen (Тобиас Линдхольм / Tobias Lindholm) [2012г., триллер, драма, HDRip] DVO

Alfredovich

39 | 13

1.45 ГБ

В этой теме нет новых непрочитанных сообщений. Подземелье / The Underground [Боевик, 1997] DVDRip, Avo

salma3

24 | 3

1.37 ГБ

В этой теме нет новых непрочитанных сообщений. Инферно / Inferno [Боевик, 1997] DVDRip, Dvo

salma3

9 | 5

1.37 ГБ

В этой теме нет новых непрочитанных сообщений. В бегах / Plato's Run [Боевик, 1997] DVDRip. Dvo

salma3

1 | 3

1.46 ГБ


Начать новую тему Ответить на тему  [ 1 сообщение ] 




Для Мосгорсуда, Роскомнадзора и рекламодателей:: mosgorsud-torrent[собачка]yandex.ru