Торрент файл
скачать торрент магнет ссылка Добавлен: 11 мар 2016, 12:19
Размер: 742.81 МБ
Сидеров: 102
Личеров: 10
Статус: (salma3)
Автор

СообщениеДобавлено: 11 мар 2016, 12:19 

Не в сети
Супермодератор
Аватара пользователя
Дата регистрации:
15 фев 2012, 16:44
Возраст: 27
Спасибо: 5139 / 2090
Сообщения: 17432
Год выхода: 1975
Жанр: Приключения, фантастика, драма
Режиссер: Кевин Коннор / Kevin Connor

В ролях: Даг МакКлёр, Джон МакИнери, Сьюзен Пенхалигон, Кейт Баррон, Энтони Эйнли, Деклан Малхолланд, Годфри Джеймс, Рой Холдер, Бен Ховард, Брайан Холл, Эндрю Маккаллок, Колин Фаррелл, Грэхем Мэллард, Бобби Парр

О фильме: В конце Второй мировой войны находят рукопись, содержащую удивительный рассказ. В 1916 году моряки британского грузового корабля, захваченного немецкой подводной лодкой, были отнесены течением к острову Капрона, где обнаружили мир динозавров, вулканов и первобытных людей. В рукописи описаны все приключения, которые им пришлось пережить...



Страна: Великобритания, США
Студия: Amicus Productions, Land Associates, Lion International, Edgar Rice Burroughs Inc.
Продолжительность: 01:31:17
Перевод: Авторский (одноголосый, закадровый) - Юрий Живов

Файл
Формат: avi
Качество: HDTVRip (HDTVRip.720p)
Видео: XviD, 656x352, 25fps, 1000kbps
Аудио: MPEG Layer 3, 2ch, 48000Hz, 128kbps

General
Complete name : Zemla.Zabytaa.Vremenem.1975.A.HDTVRip.700.CurHaJI.avi
Format : AVI
Format/Info : Audio Video Interleave
File size : 743 MiB
Duration : 1h 31mn
Overall bit rate : 1 138 Kbps
Movie name : Zemla.Zabytaa.Vremenem.1975.A.HDTVRip.700.CurHaJI
Writing application : VirtualDubMod 1.5.10.3 | www.virtualdub-fr.org || (build 2550/release)
Writing library : VirtualDub build 35491/release
Video
ID : 0
Format : MPEG-4 Visual
Format profile : Advanced Simple@L5
Format settings, BVOP : 1
Format settings, QPel : No
Format settings, GMC : No warppoints
Format settings, Matrix : Custom
Codec ID : XVID
Codec ID/Hint : XviD
Duration : 1h 31mn
Bit rate : 1 000 Kbps
Width : 656 pixels
Height : 352 pixels
Display aspect ratio : 1.85:1
Frame rate : 25.000 fps
Color space : YUV
Chroma subsampling : 4:2:0
Bit depth : 8 bits
Scan type : Progressive
Compression mode : Lossy
Bits/(Pixel*Frame) : 0.173
Stream size : 653 MiB (88%)
Writing library : XviD 73
Audio
ID : 1
Format : MPEG Audio
Format version : Version 1
Format profile : Layer 3
Codec ID : 55
Codec ID/Hint : MP3
Duration : 1h 31mn
Bit rate mode : Constant
Bit rate : 128 Kbps
Channel(s) : 2 channels
Sampling rate : 48.0 KHz
Compression mode : Lossy
Stream size : 83.6 MiB (11%)
Alignment : Aligned on interleaves
Interleave, duration : 40 ms (1.00 video frame)
Interleave, preload duration : 504 ms
Writing library : LAME3.99r
Encoding settings : -m s -V 4 -q 2 -lowpass 17 -b 128



Релиз от:


_________________



реклама партнёра


Вернуться к началу
 Профиль Отправить личное сообщение  
 
   Похожие торренты   Автор   Торрент   Размер 
В этой теме нет новых непрочитанных сообщений. Земля, забытая временем / The Land That Time Forgot [приключения, фантастика, 1975] DVDRip, Avo

salma3

15 | 7

1.47 ГБ

В этой теме нет новых непрочитанных сообщений. Люди, забытые временем / The People That Time Forgot [Фантастика, приключения, драма, 1977] HDTVRip, Dvo

salma3

101 | 14

742.91 МБ

В этой теме нет новых непрочитанных сообщений. История Игрушек: То, что забыто / Toy Story That Time Forgot [Короткометражный анимационный фильм, 2014] HDTVRip, avo

Dracon

549 | 6

325.33 МБ

В этой теме нет новых непрочитанных сообщений. Земля Хо! / Land Ho! [комедия, приключения, 2014) HDRip, Mvo [iTunes]

Dracon

815 | 77

1.46 ГБ

В этой теме нет новых непрочитанных сообщений. Земля обетованная / The Land [драма, 2016] WEB-DLRip, Mvo

salma3

73 | 10

1.37 ГБ

В этой теме нет новых непрочитанных сообщений. Земля обетованная / The Land [драма, 2016] WEB-DL 720p, Mvo

salma3

60 | 11

3.17 ГБ

В этой теме нет новых непрочитанных сообщений. Земля обетованная / Promised Land [драма, триллер, 2004] DVDRip, Dvo

salma3

99 | 59

1.46 ГБ


Начать новую тему Ответить на тему  [ 1 сообщение ] 




Для Мосгорсуда, Роскомнадзора и рекламодателей:: mosgorsud-torrent[собачка]yandex.ru