Торрент файл
скачать торрент магнет ссылка Добавлен: 10 мар 2016, 22:21
Размер: 1.46 ГБ
Сидеров: 1
Личеров: 0
Статус: (salma3)
Автор

СообщениеДобавлено: 10 мар 2016, 22:21 

Не в сети
Супермодератор
Аватара пользователя
Дата регистрации:
15 фев 2012, 16:44
Возраст: 27
Спасибо: 5121 / 2089
Сообщения: 17282
Страна: Гонконг
[b]Жанр:
боевые искусства
Год выпуска: 1979
Продолжительность: 01:30:31

Перевод: Одноголосый закадровый - Shaman

Режиссер: Пао Сю-Ли / Pao Hsueh-Li

В ролях: Дэвид Чианг, Дориан Тан, Майкл Чан, Вонг Чунг, Цай Хунг, Фань Мэйшэн

Описание: За несметными сокровищами, спрятаными где-то на Кровавой мельнице охотятся несколько человек. В их числе начальник полиции Чоу (Дориан Тан), преступник Йин Ген-Тао (Дэвид Чианг), толстяк-мошенник (Фан Мей-Шенг), деувшка-боец Чай Лин, мастер Тан Пао (Майкл Чан) - правая рука погибшего предводителя секты Пай Лин с большим отрядом и ещё куча народу, которые один за одним или целыми пачками погибают во время кровавой битвы за сокровища.

Качество видео: DVDRip
Формат видео
: AVI
Видео: 656x480 (1.37:1), 25 fps, XviD build 73 ~2099 kbps avg, 0.27 bit/pixel
Аудио: 48 kHz, AC3 Dolby Digital, 2/0 (L,R) ch, ~192 kbps



Общее
Полное имя : H:\Blooded.Treasury.Fight.1979.dvdrip_[1.46]_[teko].avi
Формат : AVI
Формат/Информация : Audio Video Interleave
Размер файла : 1,46 Гбайт
Продолжительность : 1 ч. 30 м.
Общий поток : 2302 Кбит/сек
Программа кодирования : VirtualDubMod 1.5.10.3 | http://www.virtualdub-fr.org || (build 2550/release)
Библиотека кодирования : VirtualDubMod build 2550/release

Видео
Идентификатор : 0
Формат : MPEG-4 Visual
Профиль формата : Advanced Simple@L5
Параметр BVOP формата : 2
Параметр QPel формата : Нет
Параметр GMC формата : Без точки перехода
Параметр матрицы формата : Выборочная
Идентификатор кодека : XVID
Идентификатор кодека/Подсказка : XviD
Продолжительность : 1 ч. 30 м.
Битрейт : 2100 Кбит/сек
Ширина : 656 пикселей
Высота : 480 пикселей
Соотношение сторон : 4:3
Частота кадров : 25,000 кадров/сек
Цветовое пространство : YUV
Субдискретизация насыщенности : 4:2:0
Битовая глубина : 8 бит
Тип развёртки : Прогрессивная
Метод сжатия : С потерями
Бит/(Пиксели*Кадры) : 0.267
Размер потока : 1,33 Гбайт (91%)
Библиотека кодирования : XviD 73

Аудио
Идентификатор : 1
Формат : AC-3
Формат/Информация : Audio Coding 3
Расширение режима : CM (complete main)
Параметр Endianness формата : Big
Идентификатор кодека : 2000
Продолжительность : 1 ч. 30 м.
Вид битрейта : Постоянный
Битрейт : 192 Кбит/сек
Каналы : 2 канала
Расположение каналов : Front: L R
Частота : 48,0 КГц
Битовая глубина : 16 бит
Метод сжатия : С потерями
Размер потока : 124 Мбайт (8%)
Выравнивание : Разделение по промежуткам
Продолжительность промежутка : 40 мс. (1,00 видеокадр)
Время предзагрузки промежутка : 500 мс.
Релиз группы:





_________________



реклама партнёра


Вернуться к началу
 Профиль Отправить личное сообщение  
 
   Похожие торренты   Автор   Торрент   Размер 
В этой теме нет новых непрочитанных сообщений. Слепой кулак Брюса / Blind Fist Of Bruce / Mang quan gui shou [Драма, боевые искусства, 1979] DVDRip, Dvo

salma3

125 | 8

1.38 ГБ

В этой теме нет новых непрочитанных сообщений. Кулак Дракона / Dragon Fist [Боевик, боевые искусства, драма, 1979] BDRip 1080p, Mvo+Avo

salma3

34 | 5

7.55 ГБ

В этой теме нет новых непрочитанных сообщений. Бесстрашная гиена / Xiao quan guai zhao [Боевик, боевые искусства, комедия, 1979] BD-Rip 1080p, Avo+Dvo

salma3

6 | 6

6.6 ГБ

В этой теме нет новых непрочитанных сообщений. Вин Чун / Wing Chun [Боевик, боевые искусства, 1994] DVDRip-AVC, Avo

salma3

273 | 35

2.04 ГБ

В этой теме нет новых непрочитанных сообщений. Мой самурай / My Samurai [Боевик, боевые искусства, 1992] DVDRip, Avo

salma3

1 | 0

1.45 ГБ

В этой теме нет новых непрочитанных сообщений. Кровавый спорт 3 / Bloodsport 3 [Боевик, боевые искусства, 1996] DVDRip-AVC, Dvo+Avo

salma3

58 | 16

2.17 ГБ

В этой теме нет новых непрочитанных сообщений. Тайные соперники / Nan quan bei tui [Боевик, боевые искусства, 1976] DVDRip-AVC, Avo

salma3

54 | 17

1.89 ГБ


Начать новую тему Ответить на тему  [ 1 сообщение ] 




Для Мосгорсуда, Роскомнадзора и рекламодателей:: mosgorsud-torrent[собачка]yandex.ru