Торрент файл
скачать торрент магнет ссылка Добавлен: 10 мар 2016, 22:19
Размер: 1.6 ГБ
Сидеров: 1
Личеров: 1
Статус: (salma3)
Автор

СообщениеДобавлено: 10 мар 2016, 22:19 

В сети
Супермодератор
Аватара пользователя
Дата регистрации:
15 фев 2012, 16:44
Возраст: 27
Спасибо: 5130 / 2089
Сообщения: 17353
Страна: Италия
Жанр: комедия
Год выпуска: 1970
Продолжительность: 01:41:20

Перевод: Одноголосый закадровый SATKUR
Cубтитры: нет
Оригинальная аудиодорожка: итальянский
Режиссер: Джованни Гримальди / Giovanni Grimaldi

В ролях: Франко Франки, Чиччо Инграссия, Ренато Бальдини, Катя Кристин, Ренато Малавази, Ада Пометти, Альфредо Риццо, Линда Сини, Карло Спозито, Орацио Стракуцци

Описание: Богатая и капризная наследница нефтяного магната из Америки решает любым способом получить титул настоящей принцессы. Для этого ее отец находит дочери в мужья сицилийского принца, имеющего титул, но погрязшего в долгах.

Доп. информация: Одноголосый закадровый SATKUR по субтитрам Натальи Семиной

Сэмпл: http://multi-up.com/1091732

Качество видео: DVDRip
Формат видео: AVI
Видео: 592x432 (1.37:1), 25 fps, XviD build 64 ~1859 kbps avg, 0.29 bit/pixel
Аудио 1: 48 kHz, AC3 Dolby Digital, 2/0 (L,R) ch, ~192.00 kbps - русский
Аудио 2: 48 kHz, AC3 Dolby Digital, 2/0 (L,R) ch, ~192.00 kbps - итальянский

Общее
Полное имя : F:\FILMY\FILM-2016\Disk-118\Требуеться принц\Principe.coronato.cercasi.per.ricca.ereditiera.1970.Ita.[vo.satkur+Ita].AC3.Rus\Principe.coronato.cercasi.per.ricca.ereditiera.1970.Ita.[vo.satkur+Ita].AC3.Rus.avi
Формат : AVI
Формат/Информация : Audio Video Interleave
Размер файла : 1,60 Гбайт
Продолжительность : 1 ч. 41 м.
Общий поток : 2258 Кбит/сек
Программа кодирования : VirtualDubModRus 1.5.10.2 (build 2542/release)
Библиотека кодирования : VirtualDubMod build 2542/release

Видео
Идентификатор : 0
Формат : MPEG-4 Visual
Профиль формата : Advanced Simple@L5
Параметр BVOP формата : 2
Параметр QPel формата : Нет
Параметр GMC формата : Без точки перехода
Параметр матрицы формата : Default (H.263)
Идентификатор кодека : XVID
Идентификатор кодека/Подсказка : XviD
Продолжительность : 1 ч. 41 м.
Битрейт : 1859 Кбит/сек
Ширина : 592 пикселя
Высота : 432 пикселя
Соотношение сторон : 1,370
Частота кадров : 25,000 кадров/сек
Цветовое пространство : YUV
Субдискретизация насыщенности : 4:2:0
Битовая глубина : 8 бит
Тип развёртки : Прогрессивная
Метод сжатия : С потерями
Бит/(Пиксели*Кадры) : 0.291
Размер потока : 1,32 Гбайт (82%)
Библиотека кодирования : XviD 64

Аудио #1
Идентификатор : 1
Формат : AC-3
Формат/Информация : Audio Coding 3
Расширение режима : CM (complete main)
Параметр Endianness формата : Big
Идентификатор кодека : 2000
Продолжительность : 1 ч. 41 м.
Вид битрейта : Постоянный
Битрейт : 192 Кбит/сек
Каналы : 2 канала
Расположение каналов : Front: L R
Частота : 48,0 КГц
Битовая глубина : 16 бит
Метод сжатия : С потерями
Размер потока : 139 Мбайт (9%)
Выравнивание : Разделение по промежуткам
Продолжительность промежутка : 40 мс. (1,00 видеокадр)
Время предзагрузки промежутка : 500 мс.

Аудио #2
Идентификатор : 2
Формат : AC-3
Формат/Информация : Audio Coding 3
Расширение режима : CM (complete main)
Параметр Endianness формата : Big
Идентификатор кодека : 2000
Продолжительность : 1 ч. 41 м.
Вид битрейта : Постоянный
Битрейт : 192 Кбит/сек
Каналы : 2 канала
Расположение каналов : Front: L R
Частота : 48,0 КГц
Битовая глубина : 16 бит
Метод сжатия : С потерями
Размер потока : 139 Мбайт (9%)
Выравнивание : Разделение по промежуткам
Продолжительность промежутка : 40 мс. (1,00 видеокадр)
Время предзагрузки промежутка : 500 мс.


_________________



реклама партнёра


Вернуться к началу
 Профиль Отправить личное сообщение  
 
   Похожие торренты   Автор   Торрент   Размер 
В этой теме нет новых непрочитанных сообщений. Принцесса и нищий / Il principe abusivo [комедия, 2013] HDRip, Mvo

Dracon

1684 | 80

1.46 ГБ

В этой теме нет новых непрочитанных сообщений. Требуется сосед / Roommate Wanted [триллер, 2015] DVDRip, Avo

salma3

615 | 60

1.04 ГБ

В этой теме нет новых непрочитанных сообщений. Срочно требуется звезда / Life with Mikey [комедия, семейный, 1993] BDRip 720p, Avo

salma3

42 | 8

3.42 ГБ

В этой теме нет новых непрочитанных сообщений. Принц из снов / Dream for an Insomniac [драма, мелодрама, комедия, 1996] DVDRip, Mvo

salma3

32 | 4

991.07 МБ

В этой теме нет новых непрочитанных сообщений. Хай, мамаша! / Hi, Mom! [Комедия, 1970] DVDRip, Mvo

salma3

2 | 3

1.37 ГБ

В этой теме нет новых непрочитанных сообщений. Торговец звуками / Trader Hornee [комедия, приключения, 1970] DVDRip, Dvo

salma3

46 | 4

1.37 ГБ

В этой теме нет новых непрочитанных сообщений. Хлопающий крыльями / Flap [драма, комедия, вестерн, 1970] DVDRip, Avo

salma3

10 | 6

1.46 ГБ


Начать новую тему Ответить на тему  [ 1 сообщение ] 




Для Мосгорсуда, Роскомнадзора и рекламодателей:: mosgorsud-torrent[собачка]yandex.ru