Торрент файл
скачать торрент магнет ссылка Добавлен: 10 мар 2016, 22:15
Размер: 1.45 ГБ
Сидеров: 1
Личеров: 0
Статус: (salma3)
Автор

СообщениеДобавлено: 10 мар 2016, 22:15 

Не в сети
Супермодератор
Аватара пользователя
Дата регистрации:
15 фев 2012, 16:44
Возраст: 27
Спасибо: 5139 / 2089
Сообщения: 17411
Страна: США
Жанр: Боевик , вестерн , приключения
Год выпуска: 1969
Продолжительность: 1:49:30

Перевод: Авторский (одноголосый закадровый) С.Кузнецов
Cубтитры: нет
Режиссер: Том Грис / Tom Gries

В ролях: Джим Браун, Рэкел Уэлч, Берт Рейнолдс, Фернандо Ламас, Дэн О’Херлихи, Эрик Браден, Майкл Форест, Альдо Самбрель, Соледад Миранда, Альберто Дальбес

Описание: Сто винтовок нужны повстанцам, чтобы выступить против угнетателей. Ради этой благой цели грабитель-полукровка Яки Джо крадет из банка 6 000 долларов. Но едва он возвращается в родную мексиканскую деревушку, как объявляется Лайдрекер, суровый блюститель закона из Аризоны, который не собирается возвращаться домой с пустыми руками.

Доп. информация: За звуковую дорожку спасибо Glowamy

Сэмпл: https://www.sendspace.com/file/56h8vt

Качество видео: DVDRip
Формат видео: AVI
Видео: XviD ,720x384 (1.85:1) ,23.976 fps , 1 698 Kbps
Аудио: AC3 , 48 kHz , 192.00 kbps avg , 2/0 (L,R) ch

Complete name Сто винтовок 1969.avi
Format : AVI
Format/Info : Audio Video Interleave
File size : 1.45 GiB
Duration : 1h 49mn
Overall bit rate : 1 899 Kbps
Writing application : VirtualDubMod 1.5.10.3 | http://www.virtualdub-fr.org || (build 2550/release)
Writing library : VirtualDubMod build 2550/release

Video
ID : 0
Format : MPEG-4 Visual
Format profile : Advanced Simple@L5
Format settings, BVOP : 1
Format settings, QPel : No
Format settings, GMC : No warppoints
Format settings, Matrix : Custom
Codec ID : XVID
Codec ID/Hint : XviD
Duration : 1h 49mn
Bit rate : 1 698 Kbps
Width : 720 pixels
Height : 384 pixels
Display aspect ratio : 1.85:1
Frame rate : 23.976 (24000/1001) fps
Color space : YUV
Chroma subsampling : 4:2:0
Bit depth : 8 bits
Scan type : Progressive
Compression mode : Lossy
Bits/(Pixel*Frame) : 0.256
Stream size : 1.30 GiB (89%)
Writing library : XviD 73

Audio
ID : 1
Format : AC-3
Format/Info : Audio Coding 3
Mode extension : CM (complete main)
Format settings, Endianness : Big
Codec ID : 2000
Duration : 1h 49mn
Bit rate mode : Constant
Bit rate : 192 Kbps
Channel(s) : 2 channels
Channel positions : Front: L R
Sampling rate : 48.0 KHz
Frame rate : 31.250 fps (1536 spf)
Compression mode : Lossy
Stream size : 150 MiB (10%)
Alignment : Split accross interleaves
Interleave, duration : 42 ms (1.00 video frame)
Interleave, preload duratio : 500 ms


_________________



реклама партнёра


Вернуться к началу
 Профиль Отправить личное сообщение  
 
   Похожие торренты   Автор   Торрент   Размер 
В этой теме нет новых непрочитанных сообщений. Сто винтовок / 100 Rifles [приключения, вестерн, военный, 1969] BDRip 1080p, Mvo

salma3

9 | 3

14.04 ГБ

В этой теме нет новых непрочитанных сообщений. Сто винтовок / 100 Rifles [приключения, вестерн, военный, 1969] BDRip 720p, Mvo

salma3

61 | 20

5.34 ГБ

В этой теме нет новых непрочитанных сообщений. Сабата / Ehi amico... c'e Sabata, hai chiuso! [Боевик, приключения, вестерн, 1969] BDRip, Mvo+Avo

salma3

43 | 4

1.46 ГБ

В этой теме нет новых непрочитанных сообщений. Золото Маккенны / Mackenna's Gold [мелодрама, вестерн, приключения, 1969] BDRip 1080p, Dub

salma3

66 | 21

11.59 ГБ

В этой теме нет новых непрочитанных сообщений. Поддержите своего шерифа / Support Your Local Sheriff! [Комедия, вестерн, приключения, 1969] BDRemux 1080p, Mvo+Sub

salma3

0 | 0

19.14 ГБ

В этой теме нет новых непрочитанных сообщений. Tepepa / Тепепа [вестерн, 1969] DVDRip, Avo

salma3

18 | 1

1.46 ГБ

В этой теме нет новых непрочитанных сообщений. Погонщик скота / Шомпольщик / The ramrodder [вестерн, 1969] DVDRip, Avo

salma3

101 | 20

1.37 ГБ


Начать новую тему Ответить на тему  [ 1 сообщение ] 




Для Мосгорсуда, Роскомнадзора и рекламодателей:: mosgorsud-torrent[собачка]yandex.ru