Торрент файл
скачать торрент магнет ссылка Добавлен: 10 мар 2016, 17:38
Размер: 1.46 ГБ
Сидеров: 2
Личеров: 0
Статус: (salma3)
Автор

СообщениеДобавлено: 10 мар 2016, 17:38 

В сети
Супермодератор
Аватара пользователя
Дата регистрации:
15 фев 2012, 16:44
Возраст: 27
Спасибо: 5130 / 2089
Сообщения: 17350
Страна: США
Жанр: Комедия , драма
Год выпуска: 1992
Продолжительность: 1:40:19

Перевод: Авторский (одноголосый закадровый) А. Михалёв
Cубтитры: нет
Оригинальная аудиодорожка: английский

Режиссер: Нил Израэл / Neal Israel

В ролях: Шоун Фелан, Джек Винсон, Марти Белафски, Джейсон Бейтман, С. Томас Хауэлл, Джонатан Силвермен, Кент Бейтман, Криста Тесрэу, Энни Поттс

Описание: Дружили с детства трое друзей. Один из них заболел лейкемией, и жить ему осталось не больше месяца. Вместе они отправляются в последнее путешествие к морю в Лос-Анджелес. По дороге с ними происходит много забавных приключений, окрашенных грустью и любовью.

Доп. информация: За предоставленный материал благодарность Evil ED 86

Сэмпл: https://www.sendspace.com/file/4vnfnw

Качество видео: LDRip
Формат видео: AVI
Видео: XviD , 576x432 (1.33:1) ,23.976 fps , 1 681 Kbps
Аудио: AC3 , 48 kHz , 192.00 kbps avg , 2/0 (L,R) ch (RUS)
Аудио 2: AC3 , 48 kHz , 192.00 kbps avg , 2/0 (L,R) ch (ENG)
Complete name С нарушением правил 1992.avi
Format : AVI
Format/Info : Audio Video Interleave
File size : 1.46 GiB
Duration : 1h 40mn
Overall bit rate : 2 079 Kbps
Writing application : VirtualDubMod 1.5.10.3 | http://www.virtualdub-fr.org || (build 2550/release)
Writing library : VirtualDubMod build 2550/release

Video
ID : 0
Format : MPEG-4 Visual
Format profile : Advanced Simple@L5
Format settings, BVOP : 2
Format settings, QPel : No
Format settings, GMC : No warppoints
Format settings, Matrix : Default (H.263)
Codec ID : XVID
Codec ID/Hint : XviD
Duration : 1h 40mn
Bit rate : 1 681 Kbps
Width : 576 pixels
Height : 432 pixels
Display aspect ratio : 4:3
Frame rate : 23.976 (24000/1001) fps
Color space : YUV
Chroma subsampling : 4:2:0
Bit depth : 8 bits
Scan type : Progressive
Compression mode : Lossy
Bits/(Pixel*Frame) : 0.282
Stream size : 1.18 GiB (81%)
Writing library : XviD 1.2.0.dev47 (UTC 2006-11-01)

Audio #1
ID : 1
Format : AC-3
Format/Info : Audio Coding 3
Mode extension : CM (complete main)
Format settings, Endianness : Big
Codec ID : 2000
Duration : 1h 40mn
Bit rate mode : Constant
Bit rate : 192 Kbps
Channel(s) : 2 channels
Channel positions : Front: L R
Sampling rate : 48.0 KHz
Frame rate : 31.250 fps (1536 spf)
Compression mode : Lossy
Stream size : 138 MiB (9%)
Alignment : Split accross interleaves
Interleave, duration : 42 ms (1.00 video frame)
Interleave, preload duratio : 500 ms

Audio #2
ID : 2
Format : AC-3
Format/Info : Audio Coding 3
Mode extension : CM (complete main)
Format settings, Endianness : Big
Codec ID : 2000
Duration : 1h 40mn
Bit rate mode : Constant
Bit rate : 192 Kbps
Channel(s) : 2 channels
Channel positions : Front: L R
Sampling rate : 48.0 KHz
Frame rate : 31.250 fps (1536 spf)
Compression mode : Lossy
Stream size : 138 MiB (9%)
Alignment : Aligned on interleaves
Interleave, duration : 42 ms (1.00 video frame)
Interleave, preload duratio : 512 ms


_________________



реклама партнёра


Вернуться к началу
 Профиль Отправить личное сообщение  
 
   Похожие торренты   Автор   Торрент   Размер 
В этой теме нет новых непрочитанных сообщений. Barbe-Q-Barbies - Breaking All The Rules [2013, Hard Rock, MP3]

PriZraK

0 | 1

100.18 МБ

В этой теме нет новых непрочитанных сообщений. Безумный Джек / Blood Salvage [ужасы, комедия, 1990] LDRip, Avo

salma3

24 | 1

897.13 МБ

В этой теме нет новых непрочитанных сообщений. Ночное наблюдение 3 / Night Eyes Three [триллер, драма, 1993] LDRip, Avo

salma3

6 | 4

1.16 ГБ

В этой теме нет новых непрочитанных сообщений. Правила секса / The Rules of Attraction [Комедия, мелодрама, драма, триллер, 2002] BDRip 720p, Dub

salma3

48 | 4

3.74 ГБ

В этой теме нет новых непрочитанных сообщений. Уходя в отрыв / Breaking Away [драма, спорт, комедия, 1979] BDRip 720p, Mvo+Avo+Sub

salma3

8 | 3

5.46 ГБ

В этой теме нет новых непрочитанных сообщений. Любовь вне правил / Leatherheads [драма, мелодрама, комедия, спорт, 2008] HDRip, Mvo

salma3

35 | 3

1.45 ГБ

В этой теме нет новых непрочитанных сообщений. Компаньон / Спутник жизни / The Companion [Триллер, Фантастика, 1994] LDRip, Avo

salma3

11 | 3

1.37 ГБ


Начать новую тему Ответить на тему  [ 1 сообщение ] 




Для Мосгорсуда, Роскомнадзора и рекламодателей:: mosgorsud-torrent[собачка]yandex.ru