Торрент файл
скачать торрент магнет ссылка Добавлен: 10 мар 2016, 14:33
Размер: 1.46 ГБ
Сидеров: 23
Личеров: 7
Статус: (salma3)
Автор

СообщениеДобавлено: 10 мар 2016, 14:33 

В сети
Супермодератор
Аватара пользователя
Дата регистрации:
15 фев 2012, 16:44
Возраст: 27
Спасибо: 5130 / 2089
Сообщения: 17365
Год выпуска: 2005
Жанр: ужасы, триллер, детектив
Режиссер: Джон Полсон / John Polson

В ролях: Роберт Де Ниро, Дакота Фаннинг, Фамке Янссен, Элизабет Шу, Эми Ирвинг, Дилан Бейкер, Мелисса Лео, Роберт Джон Бёрк, Молли Грант Кэллинс, Дэвид Чандлер

Описание:
После того, как жена Дэвида Кэллоуэя совершает самоубийство, он вместе со своей девятилетней дочерью Эмили переезжает в провинциальный городок, дабы попытаться начать все заново. Однако спустя время с Дэвидом и его дочерью начинают происходить таинственные и пугающие события. Виной тому – друг Эмили по имени Чарли… Друг, который был выдуман ею.

Доп. информация: Рип с канала Первый HD. Из видеоряда удален логотип канала, остались послерекламные вставки с названием фильма. По наполнению кадра отличается от BD http://screenshotcomparison.com/comparison/164861

Страна: США, Германия
Продолжительность: 01:34:02
Перевод: Профессиональный (дублированный)

Качество видео: HDTVRip
Формат видео: AVI
Видео: MPEG4, XviD, 720x400 (16:9), 25.000 fps, 2 022 Kbps (0.281 bit/pixel)
Аудио: AC-3, 48.0 KHz, 2 ch, 192 Kbps, CBR

Сэмпл: http://multi-up.com/1092363

Общее
Полное имя : N:\Игра в прятки.avi
Формат : AVI
Формат/Информация : Audio Video Interleave
Размер файла : 1,46 Гбайт
Продолжительность : 1 ч. 34 м.
Общий поток : 2224 Кбит/сек
Название фильма : Игра в прятки / Hide and Seek (2005)
Программа кодирования : VirtualDubMod 1.5.10.2 (build 2540/release)
Библиотека кодирования : VirtualDubMod build 2540/release
Авторское право : miha2154

Видео
Идентификатор : 0
Формат : MPEG-4 Visual
Профиль формата : Advanced Simple@L5
Параметр BVOP формата : 1
Параметр QPel формата : Нет
Параметр GMC формата : Без точки перехода
Параметр матрицы формата : Выборочная
Идентификатор кодека : XVID
Идентификатор кодека/Подсказка : XviD
Продолжительность : 1 ч. 34 м.
Битрейт : 2022 Кбит/сек
Ширина : 720 пикселей
Высота : 400 пикселей
Соотношение сторон : 16:9
Частота кадров : 25,000 кадров/сек
Цветовое пространство : YUV
Субдискретизация насыщенности : 4:2:0
Битовая глубина : 8 бит
Тип развёртки : Прогрессивная
Метод сжатия : С потерями
Бит/(Пиксели*Кадры) : 0.281
Размер потока : 1,33 Гбайт (91%)
Библиотека кодирования : XviD 65

Аудио
Идентификатор : 1
Формат : AC-3
Формат/Информация : Audio Coding 3
Расширение режима : CM (complete main)
Параметр Endianness формата : Big
Идентификатор кодека : 2000
Продолжительность : 1 ч. 34 м.
Вид битрейта : Постоянный
Битрейт : 192 Кбит/сек
Каналы : 2 канала
Расположение каналов : Front: L R
Частота : 48,0 КГц
Частота кадров : 31,250 кадров/сек (1536 spf)
Метод сжатия : С потерями
Размер потока : 129 Мбайт (9%)
Выравнивание : Разделение по промежуткам
Продолжительность промежутка : 40 мс. (1,00 видеокадр)
Время предзагрузки промежутка : 500 мс.
Заголовок : Профессиональный (полное дублирование)




_________________



реклама партнёра


Вернуться к началу
 Профиль Отправить личное сообщение  
 
   Похожие торренты   Автор   Торрент   Размер 
В этой теме нет новых непрочитанных сообщений. Игра в прятки / Hide and Seek [Ужасы, триллер, детектив, 2005] BDRip 1080p, Dub

salma3

21 | 115

11.25 ГБ

В этой теме нет новых непрочитанных сообщений. Игра в прятки / The Game of Hide and Seek [триллер, 2013] WEB-DLRip, dvo

Dracon

63 | 6

1.15 ГБ

В этой теме нет новых непрочитанных сообщений. Второе зрение: Игра в прятки / Second Sight: Hide and Seek [драма, криминал, детектив, 2000] DVDRip, Mvo

salma3

62 | 2

1.37 ГБ

В этой теме нет новых непрочитанных сообщений. Игра в прятки / Hide and Seek (Джоанна Коутс / Joanna Coates) [2014г., Великобритания, драма, мелодрама, арт-хауз, эротика, HDTVRip] sub

Alfredovich

1 | 2

621.56 МБ

В этой теме нет новых непрочитанных сообщений. Aether - Hide & Seek [2014, Progressive Metal, MP3]

PriZraK

0 | 1

81.68 МБ

В этой теме нет новых непрочитанных сообщений. The Birthday Massacre - Hide and Seek [2012, Gothic Rock, Industrial Rock, MP3]

PriZraK

0 | 1

82.23 МБ

В этой теме нет новых непрочитанных сообщений. Игра палача / Hangman's Game [ужасы, триллер, детектив, 2015] WEB-DLRip, Avo

salma3

208 | 14

1.38 ГБ


Начать новую тему Ответить на тему  [ 1 сообщение ] 




Для Мосгорсуда, Роскомнадзора и рекламодателей:: mosgorsud-torrent[собачка]yandex.ru