Торрент файл
скачать торрент магнет ссылка Добавлен: 10 мар 2016, 14:28
Размер: 2.33 ГБ
Сидеров: 0
Личеров: 0
Статус: (salma3)
Автор

СообщениеДобавлено: 10 мар 2016, 14:28 

В сети
Супермодератор
Аватара пользователя
Дата регистрации:
15 фев 2012, 16:44
Возраст: 27
Спасибо: 5134 / 2089
Сообщения: 17379
Страна: Канада, США
Жанр: боевик, триллер
Год выпуска: 1998
Продолжительность: 01:48:02

Перевод 1: Профессиональный (многоголосый закадровый)
Перевод 2: Авторский (одноголосый закадровый) Василий Горчаков
Перевод 3: Авторский (одноголосый закадровый) Юрий Живов
Cубтитры: русские
Оригинальная аудиодорожка: английский

Режиссер: Джон Ву / John Woo
В ролях: Дольф Лундгрен, Кейт Вернон, Филлип МакКензи, Кэм Хескин, Фред Уильямсон, Эндрю Джексон, Тони Де Сантис, Альберт Шульц, Джанет Бэйли

Описание: Когда убийца выходит на охоту, любой может стать его жертвой. Даже непобедимые «тузы» в суровой реальности оказываются обыкновенными «вальтами», если им в лицо смотрит дуло пистолета. Кажется, никто не сможет защитить невиновных от свинцового «правосудия» обезумевшего маньяка. Но если вам нужна защита — вам нужен всего один человек. Тот, который не остановится на полпути к справедливости и не испугается прицела сумасшедшего. Вам не нужно знать его имя, достаточно знать, что его зовут Блэкджек…



Доп. информация: За Горчакова спасибо - Fikaloid и ale_x2008, за Живова - EVILIN1105.

Сэмпл: http://sendfile.su/1212561

Качество видео: DVDRip-AVC (DVD9/Georgiy2000)
Формат видео: MKV
Видео: 702x572 (4:3) @ 750x572, 25 fps, AVC, ~2 315 Kbps, 0.231 bits/pixel
Аудио 1: 48 kHz, AC3 Dolby Digital, 2/0 (L,R) ch, ~192 kbps MVO
Аудио 2: 48 kHz, AC3 Dolby Digital, 2/0 (L,R) ch, ~192 kbps Василий Горчаков
Аудио 3: 48 kHz, AC3 Dolby Digital, 2/0 (L,R) ch, ~192 kbps Юрий Живов Отдельно
Аудио 4: 48 kHz, AC3 Dolby Digital, 2/0 (L,R) ch, ~192 kbps ENG
Формат субтитров: softsub (SRT)
x264 [info]: frame I:1265 Avg QP:14.50 size: 58197
x264 [info]: frame P:39056 Avg QP:17.45 size: 23301
x264 [info]: frame B:121749 Avg QP:19.95 size: 7328
General
Unique ID : 254810175949578320063706989821429823903 (0xBFB2A7A0F21CF47F8BCC7DFEF1C0399F)
Complete name : C:\Users\ALEX\Downloads\Фильмы\Blackjack.1998.DUALRUS.ENG.DVDRip-AVC.x264.AC3.Sub\Blackjack.1998.DUALRUS.ENG.DVDRip-AVC.x264.AC3.Sub.mkv
Format : Matroska
Format version : Version 4 / Version 2
File size : 2.18 GiB
Duration : 1h 48mn
Overall bit rate : 2 893 Kbps
Encoded date : UTC 2016-03-09 19:07:19
Writing application : mkvmerge v8.5.2 ('Crosses') 64bit
Writing library : libebml v1.3.3 + libmatroska v1.4.4

Video
ID : 1
Format : AVC
Format/Info : Advanced Video Codec
Format profile : High@L4.1
Format settings, CABAC : Yes
Format settings, ReFrames : 16 frames
Codec ID : V_MPEG4/ISO/AVC
Duration : 1h 48mn
Bit rate : 2 315 Kbps
Width : 702 pixels
Height : 572 pixels
Display aspect ratio : 4:3
Frame rate mode : Constant
Frame rate : 25.000 fps
Color space : YUV
Chroma subsampling : 4:2:0
Bit depth : 8 bits
Scan type : Progressive
Bits/(Pixel*Frame) : 0.231
Stream size : 1.75 GiB (80%)
Title : Blackjack
Writing library : x264 core 148 r2638 7599210
Encoding settings : cabac=1 / ref=16 / deblock=1:1:1 / analyse=0x3:0x113 / me=umh / subme=11 / psy=1 / psy_rd=1.00:0.10 / mixed_ref=1 / me_range=32 / chroma_me=1 / trellis=2 / 8x8dct=1 / cqm=0 / deadzone=21,11 / fast_pskip=0 / chroma_qp_offset=-3 / threads=6 / lookahead_threads=1 / sliced_threads=0 / nr=0 / decimate=1 / interlaced=0 / bluray_compat=0 / constrained_intra=0 / bframes=10 / b_pyramid=2 / b_adapt=2 / b_bias=0 / direct=3 / weightb=1 / open_gop=0 / weightp=2 / keyint=250 / keyint_min=25 / scenecut=40 / intra_refresh=0 / rc_lookahead=45 / rc=2pass / mbtree=1 / bitrate=2315 / ratetol=1.0 / qcomp=0.60 / qpmin=0 / qpmax=69 / qpstep=4 / cplxblur=20.0 / qblur=0.5 / ip_ratio=1.40 / aq=1:1.00
Default : Yes
Forced : No

Audio #1
ID : 2
Format : AC-3
Format/Info : Audio Coding 3
Mode extension : CM (complete main)
Format settings, Endianness : Big
Codec ID : A_AC3
Duration : 1h 48mn
Bit rate mode : Constant
Bit rate : 192 Kbps
Channel(s) : 2 channels
Channel positions : Front: L R
Sampling rate : 48.0 KHz
Frame rate : 31.250 fps (1536 spf)
Compression mode : Lossy
Stream size : 148 MiB (7%)
Title : MVO
Language : Russian
Default : Yes
Forced : No

Audio #2
ID : 3
Format : AC-3
Format/Info : Audio Coding 3
Mode extension : CM (complete main)
Format settings, Endianness : Big
Codec ID : A_AC3
Duration : 1h 48mn
Bit rate mode : Constant
Bit rate : 192 Kbps
Channel(s) : 2 channels
Channel positions : Front: L R
Sampling rate : 48.0 KHz
Frame rate : 31.250 fps (1536 spf)
Compression mode : Lossy
Stream size : 148 MiB (7%)
Title : AVO (Василий Горчаков)
Language : Russian
Default : No
Forced : No

Audio #3
ID : 4
Format : AC-3
Format/Info : Audio Coding 3
Mode extension : CM (complete main)
Format settings, Endianness : Big
Codec ID : A_AC3
Duration : 1h 48mn
Bit rate mode : Constant
Bit rate : 192 Kbps
Channel(s) : 2 channels
Channel positions : Front: L R
Sampling rate : 48.0 KHz
Frame rate : 31.250 fps (1536 spf)
Compression mode : Lossy
Stream size : 148 MiB (7%)
Title : Original
Language : English
Default : No
Forced : No

Text
ID : 5
Format : UTF-8
Codec ID : S_TEXT/UTF8
Codec ID/Info : UTF-8 Plain Text
Duration : 1h 46mn
Bit rate : 54 bps
Count of elements : 1104
Stream size : 42.8 KiB (0%)
Title : Full
Language : Russian
Default : No
Forced : No


_________________



реклама партнёра


Вернуться к началу
 Профиль Отправить личное сообщение  
 
   Похожие торренты   Автор   Торрент   Размер 
В этой теме нет новых непрочитанных сообщений. Bзpывaтeль / Кnосk Оff [боевик, триллер, комедия, 1998] DVDRip, Mvo+Avo

salma3

86 | 51

1.47 ГБ

В этой теме нет новых непрочитанных сообщений. Белый медведь / Der Eisbär [боевик, триллер, 1998] DVDRip-AVC, Avo

salma3

7 | 6

1.45 ГБ

В этой теме нет новых непрочитанных сообщений. Провокатор / Provocateur [боевик, триллер, драма, 1998] DVDRip, Avo

salma3

143 | 74

1.39 ГБ

В этой теме нет новых непрочитанных сообщений. Белый медведь / Der Eisbär [боевик, триллер, 1998] DVDRip, Avo

salma3

15 | 2

1.46 ГБ

В этой теме нет новых непрочитанных сообщений. Внезапное нападение / Ambushed [Боевик, триллер, 1998] DVDRip, Dvo

salma3

43 | 4

754.96 МБ

В этой теме нет новых непрочитанных сообщений. Возвращение на дикий пляж / Fit to Kill [Боевик, триллер, 1998] DVDRip, Dvo

salma3

166 | 14

1.36 ГБ

В этой теме нет новых непрочитанных сообщений. Обход / Detour [боевик, триллер, драма, криминал, 1998] DVDRip, Mvo

salma3

38 | 5

1.37 ГБ


Начать новую тему Ответить на тему  [ 1 сообщение ] 




Для Мосгорсуда, Роскомнадзора и рекламодателей:: mosgorsud-torrent[собачка]yandex.ru