Торрент файл
скачать торрент магнет ссылка Добавлен: 10 мар 2016, 13:48
Размер: 1.37 ГБ
Сидеров: 6
Личеров: 2
Статус: (salma3)
Автор

СообщениеДобавлено: 10 мар 2016, 13:48 

Не в сети
Супермодератор
Аватара пользователя
Дата регистрации:
15 фев 2012, 16:44
Возраст: 27
Спасибо: 5143 / 2090
Сообщения: 17478
Страна: США
Жанр: Триллер
Год выпуска: 1993
Продолжительность: 01:29:28

Перевод: Авторский (одноголосый закадровый) Сергей Визгунов
Режиссер: Джон Паттерсон / John Patterson

В ролях: Тим Мэтисон, Эмма Сэммс, Роберт Пасторелли, Курт Фуллер, Джон Уолкатт, Том Исбелл, Хэзер Фэйрфилд, Алекс Рокко

Описание: По книге Робина Кука.
Женщина умирает на операционном столе во время родов. Против доктора Роудса выдвинуто обвинение в том, что он ввел пациентке смертельную дозу анестетика. Роудс пускается в бега, чтобы выяснить истинную причину смерти женщины.

Доп. информация: За предоставленный фильм (из личной коллекции) спасибо Анна57

Релиз

Сэмпл: https://yadi.sk/i/iXfmmRy_q3MqH

Качество видео: VHSRip
Формат видео: AVI
Видео: 640x480 (1.33:1), 25 fps, XviD build 73 ~2048 kbps avg, 0.27 bit/pixel
Аудио: 48 kHz, MPEG Layer 3, 2 ch, ~128.00 kbps avg
Злые намерения - Harmful Intent [by Edich2].avi
Format : AVI
Format/Info : Audio Video Interleave
File size : 1.37 GiB
Duration : 1h 29mn
Overall bit rate : 2 186 Kbps
Movie name : Злые намерения - Harmful Intent [by Edich2]
Director : by Edich2
Writing application : Nandub v1.0rc2
Comment : RuTracker.org

Video
ID : 0
Format : MPEG-4 Visual
Format profile : Advanced Simple@L5
Format settings, BVOP : 1
Format settings, QPel : No
Format settings, GMC : No warppoints
Format settings, Matrix : Custom
Codec ID : XVID
Codec ID/Hint : XviD
Duration : 1h 29mn
Bit rate : 2 048 Kbps
Width : 640 pixels
Height : 480 pixels
Display aspect ratio : 4:3
Frame rate : 25.000 fps
Color space : YUV
Chroma subsampling : 4:2:0
Bit depth : 8 bits
Scan type : Progressive
Compression mode : Lossy
Bits/(Pixel*Frame) : 0.267
Stream size : 1.28 GiB (94%)
Writing library : XviD 73

Audio
ID : 1
Format : MPEG Audio
Format version : Version 1
Format profile : Layer 3
Codec ID : 55
Codec ID/Hint : MP3
Duration : 1h 29mn
Bit rate mode : Constant
Bit rate : 128 Kbps
Channel(s) : 2 channels
Sampling rate : 48.0 KHz
Compression mode : Lossy
Stream size : 81.9 MiB (6%)
Alignment : Split accross interleaves
Interleave, duration : 40 ms (1.00 video frame)
Interleave, preload duratio : 500 ms






_________________



реклама партнёра


Вернуться к началу
 Профиль Отправить личное сообщение  
 
   Похожие торренты   Автор   Торрент   Размер 
В этой теме нет новых непрочитанных сообщений. Сексуальное намерение / Сексуальная цель / Sexual Intent [Боевик, триллер, драма, 1997] VHSRip, Avo

salma3

67 | 8

747.53 МБ

В этой теме нет новых непрочитанных сообщений. Враждебное намерение / With Hostile Intent [Драма, детектив, криминал, 1993] SATRip, Mvo

salma3

2 | 2

1.36 ГБ

В этой теме нет новых непрочитанных сообщений. Не тот человек / The Wrong Man [триллер, мелодрама, 1993] VHSRip, Avo

salma3

28 | 3

1.03 ГБ

В этой теме нет новых непрочитанных сообщений. Кулак ангела / Angelfist [боевик, триллер, 1993] VHSRip, Avo

salma3

3 | 2

1.29 ГБ

В этой теме нет новых непрочитанных сообщений. Как две капли воды / Mirror Images II [триллер, драма, 1993] VHSRip, Avo

salma3

7 | 2

1.09 ГБ

В этой теме нет новых непрочитанных сообщений. Плохие намерения / Дурные наклонности / Cattive inclinazioni [триллер, 2003] DVDRip, Mvo

salma3

1 | 2

690.41 МБ

В этой теме нет новых непрочитанных сообщений. Правило номер 3 / Каталы / Rule No. 3 [Триллер, Детектив, Криминал, 1993] VHSRip, Avo

salma3

4 | 1

1.5 ГБ


Начать новую тему Ответить на тему  [ 1 сообщение ] 




Для Мосгорсуда, Роскомнадзора и рекламодателей:: mosgorsud-torrent[собачка]yandex.ru