Торрент файл
скачать торрент магнет ссылка Добавлен: 10 мар 2016, 13:15
Размер: 1.37 ГБ
Сидеров: 141
Личеров: 11
Статус: (salma3)
Автор

СообщениеДобавлено: 10 мар 2016, 13:15 

В сети
Супермодератор
Аватара пользователя
Дата регистрации:
15 фев 2012, 16:44
Возраст: 28
Спасибо: 6565 / 2130
Сообщения: 43672
90 минут на небесах / 90 Minutes in Heaven

Год выпуска: 2015
Жанр: Драма
Режиссер: Майкл Полиш

В ролях: Кейт Босворт, Хейден Кристенсен, Хадсон Мик, Бобби Батсон, Элизабет Хантер, Дэвид Клайд Карр, Катрин Карлен, Дуайт Йоакам, Майкл В. Смит, Джианна Саймон

Описание:
Жизнь пастора Дона Пайпера, любящего супруга и отца, — образец домашнего уюта и счастья. Непрошеные перемены наступают, когда Дон попадает в автомобильную аварию. Бессильные спасатели лишь констатируют факт смерти и накрывают тело брезентом. Однако спустя полтора часа бригада реанимации возвращает Дона к жизни.
Все это время душа Дона обретала покой, любовь и радость, каких никогда не знала прежде. Благодаря клинической смерти Дон приобретает мистический опыт, который заставляет его по-новому взглянуть на собственную жизнь...



Страна: США
Продолжительность: 02:02:00
Перевод: Профессиональный (многоголосый закадровый) [iTunes]

Файл
Качество: HDRip
Видео кодек: XviD
Аудио кодек: AC3
Видео: 720x304 (2.35:1), 23.976 fps, MPEG-4 XviD, Simple@L5 ~ 1211 Kbps, 0.231 bit/pixel
Аудио: AC-3, 48.0 KHz, 6 ch, 384 Kbps, CBR


General
Complete name : D:\torrent\90.min.Na.NebO.2O15.P.HDRip.14OOMB.avi
Format : AVI
Format/Info : Audio Video Interleave
File size : 1.37 GiB
Duration : 2h 2mn
Overall bit rate : 1 604 Kbps
Writing application : VirtualDubMod 1.5.10.2 (build 2540/release)
Writing library : VirtualDubMod build 2540/release

Video
ID : 0
Format : MPEG-4 Visual
Format profile : Advanced Simple@L5
Format settings, BVOP : 2
Format settings, QPel : No
Format settings, GMC : No warppoints
Format settings, Matrix : Default (MPEG)
Codec ID : XVID
Codec ID/Hint : XviD
Duration : 2h 2mn
Bit rate : 1 211 Kbps
Width : 720 pixels
Height : 304 pixels
Display aspect ratio : 2.35:1
Frame rate : 23.976 fps
Color space : YUV
Chroma subsampling : 4:2:0
Bit depth : 8 bits
Scan type : Progressive
Compression mode : Lossy
Bits/(Pixel*Frame) : 0.231
Stream size : 1.03 GiB (75%)
Writing library : XviD 1.2.1 (UTC 2008-12-04)

Audio
ID : 1
Format : AC-3
Format/Info : Audio Coding 3
Mode extension : CM (complete main)
Format settings, Endianness : Big
Codec ID : 2000
Duration : 2h 1mn
Bit rate mode : Constant
Bit rate : 384 Kbps
Channel(s) : 6 channels
Channel positions : Front: L C R, Side: L R, LFE
Sampling rate : 48.0 KHz
Compression mode : Lossy
Stream size : 335 MiB (24%)
Alignment : Split accross interleaves
Interleave, duration : 42 ms (1.00 video frame)
Interleave, preload duration : 500 ms


_________________
Проголосуй за трекер Открытый торрент трекер - RUS-MEDIA.ORG

Проголосуй Открытый торрент трекер - RUS-MEDIA.ORG



реклама партнёра


Вернуться к началу
 Профиль Отправить личное сообщение  
 
   Похожие торренты   Автор   Торрент   Размер 
В этой теме нет новых непрочитанных сообщений. 90 минут на небесах / 90 Minutes in Heaven [драма, 2015] BDRip, Mvo [iTunes]

salma3

14 | 5

2.18 ГБ

В этой теме нет новых непрочитанных сообщений. 90 минут на небесах / 90 Minutes in Heaven [драма, 2015] BDRip 1080p, Mvo+Sub [iTunes]

salma3

8 | 2

13.11 ГБ

В этой теме нет новых непрочитанных сообщений. Семь минут / 7 Minutes (Jay Martin) [триллер, драма, криминал, 2014] HDRip, dvo

Dracon

1403 | 90

1.37 ГБ

В этой теме нет новых непрочитанных сообщений. 15 минут славы / 15 Minutes [Боевик, триллер, драма, криминал, 2001] HDRip, Mvo

salma3

24 | 4

1.46 ГБ

В этой теме нет новых непрочитанных сообщений. 15 минут славы / 15 Minutes [боевик, триллер, драма, криминал, 2001] HDRip-AVC, Dub

salma3

165 | 69

745.89 МБ

В этой теме нет новых непрочитанных сообщений. Ночь на небесах / A Night in Heaven [драма, мелодрама, 1983] DVDRip, Avo

salma3

34 | 2

716.13 МБ

В этой теме нет новых непрочитанных сообщений. 88 минут / 88 Minutes [Триллер, драма, криминал, детектив, 2007] BDRip 720p, Mvo

salma3

30 | 24

4.54 ГБ


Начать новую тему Ответить на тему  [ 1 сообщение ] 




Для Мосгорсуда, Роскомнадзора и рекламодателей:: mosgorsud-torrent[собачка]yandex.ru