Торрент файл
скачать торрент магнет ссылка Добавлен: 10 мар 2016, 03:29
Размер: 1.85 ГБ
Сидеров: 23
Личеров: 7
Статус: (salma3)
Автор

СообщениеДобавлено: 10 мар 2016, 03:29 

В сети
Супермодератор
Аватара пользователя
Дата регистрации:
15 фев 2012, 16:44
Возраст: 27
Спасибо: 5139 / 2089
Сообщения: 17411
Страна: США
Жанр
: комедия, драма
Год выпуска: 2008
Продолжительность: 02:03:49

Перевод: Профессиональный (многоголосый закадровый)
Cубтитры: русские, английские
Оригинальная аудиодорожка: английский[/font]

Режиссер: Чарли Кауфман / Charlie Kaufman

В ролях: Филип Сеймур Хоффман, Кэтрин Кинер, Сэди Голдштейн, Том Нунен, Питер Фридман, Чарльз Текман, Джош Пэйс, Дэниэл Лондон, Роберт Сиэй, Мишель Уильямс, Саманта Мортон, Эми Спейнджер, Дженнифер Джейсон Ли

Описание: Директор театра в творческом кризисе пытается разобраться со своей жизнью и окружающими его женщинами. Наконец, посчитав, что не стоит тратить свою жизнь впустую, он решает поставить «важную и искреннюю пьесу», для этой цели воздвигая настоящую живую модель Нью-Йорка в заброшенном складе. Он переживает муки любви и страдает от непонятных болезней…

Качество видео: HDRip
Формат видео
: AVI
Видео: 720x304 (2.37:1), 23.976 fps, XviD build 73 ~1229 kbps avg, 0.23 bit/pixel
Аудио: 48 kHz, AC3 Dolby Digital, 3/2 (L,C,R,l,r) + LFE ch, ~448 kbps - многоголосый
Аудио: 48 kHz, AC3 Dolby Digital, 3/2 (L,C,R,l,r) + LFE ch, ~448 kbps - оригинал (отдельно)

Общее
Полное имя : H:\Synecdoche.New.York.2008.hdrip_[1.46].avi
Формат : AVI
Формат/Информация : Audio Video Interleave
Размер файла : 1,46 Гбайт
Продолжительность : 2 ч. 3 м.
Общий поток : 1687 Кбит/сек
Программа кодирования : VirtualDubMod 1.5.10.3 | http://www.virtualdub-fr.org || (build 2550/release)
Библиотека кодирования : VirtualDubMod build 2550/release
Видео
Идентификатор : 0
Формат : MPEG-4 Visual
Профиль формата : Advanced Simple@L5
Параметр BVOP формата : 2
Параметр QPel формата : Нет
Параметр GMC формата : Без точки перехода
Параметр матрицы формата : Выборочная
Идентификатор кодека : XVID
Идентификатор кодека/Подсказка : XviD
Продолжительность : 2 ч. 3 м.
Битрейт : 1230 Кбит/сек
Ширина : 720 пикселей
Высота : 304 пикселя
Соотношение сторон : 2,35:1
Частота кадров : 23,976 кадра/сек
Цветовое пространство : YUV
Субдискретизация насыщенности : 4:2:0
Битовая глубина : 8 бит
Тип развёртки : Прогрессивная
Метод сжатия : С потерями
Бит/(Пиксели*Кадры) : 0.234
Размер потока : 1,06 Гбайт (73%)
Библиотека кодирования : XviD 73
Аудио
Идентификатор : 1
Формат : AC-3
Формат/Информация : Audio Coding 3
Расширение режима : CM (complete main)
Параметр Endianness формата : Big
Идентификатор кодека : 2000
Продолжительность : 2 ч. 3 м.
Вид битрейта : Постоянный
Битрейт : 448 Кбит/сек
Каналы : 6 каналов
Расположение каналов : Front: L C R, Side: L R, LFE
Частота : 48,0 КГц
Битовая глубина : 16 бит
Метод сжатия : С потерями
Размер потока : 396 Мбайт (27%)
Выравнивание : Разделение по промежуткам
Продолжительность промежутка : 42 мс. (1,00 видеокадр)
Время предзагрузки промежутка : 500 мс.
Релиз группы:





_________________



реклама партнёра


Вернуться к началу
 Профиль Отправить личное сообщение  
 
   Похожие торренты   Автор   Торрент   Размер 
В этой теме нет новых непрочитанных сообщений. Нью-Йорк, Нью-Йорк / Synecdoche, New York [Комедия, драма, 2008] BDRip 720p, Mvo+Sub

salma3

71 | 6

4.36 ГБ

В этой теме нет новых непрочитанных сообщений. Добро пожаловать в Нью-Йорк / Welcome to New York [драма, 2014] WEBRip, Mvo

Dracon

417 | 7

1.37 ГБ

В этой теме нет новых непрочитанных сообщений. Добро пожаловать в Нью-Йорк / Welcome to New York [драма, 2014] DVD5, Mvo+Sub [Лицензия]

Dracon

47 | 4

4.37 ГБ

В этой теме нет новых непрочитанных сообщений. Добро пожаловать в Нью-Йорк / Welcome to New York [драма, 2014] DVDRip, Mvo [Лицензия]

Dracon

0 | 2

1.37 ГБ

В этой теме нет новых непрочитанных сообщений. Гарри и Уолтер едут в Нью-Йорк / Harry and Walter Go to New York [комедия, криминал, 1976] DVDRip, Mvo

salma3

215 | 43

1.47 ГБ

В этой теме нет новых непрочитанных сообщений. Рождение мафии: Нью-Йорк / The Making of the Mob: New York [S01] (Джон Илер) [драма, криминал, триллер, 2015] WEB-DL 1080p [LostFilm]

Dracon

270 | 179

14.48 ГБ

В этой теме нет новых непрочитанных сообщений. Рождение мафии: Нью-Йорк / The Making of the Mob: New York [01x01-08 из 08] (Джон Илер) [драма, криминал, триллер, 2015] WEB-DL 720p [LostFilm]

Dracon

242 | 225

10.09 ГБ


Начать новую тему Ответить на тему  [ 1 сообщение ] 




Для Мосгорсуда, Роскомнадзора и рекламодателей:: mosgorsud-torrent[собачка]yandex.ru