Торрент файл
скачать торрент магнет ссылка Добавлен: 09 мар 2016, 21:48
Размер: 1.36 ГБ
Сидеров: 2
Личеров: 0
Статус: (salma3)
Автор

СообщениеДобавлено: 09 мар 2016, 21:48 

Не в сети
Супермодератор
Аватара пользователя
Дата регистрации:
15 фев 2012, 16:44
Возраст: 28
Спасибо: 6577 / 2143
Сообщения: 43865
Страна: США
Жанр: комедия
Год выпуска: 1999
Продолжительность: 01:43:27

Перевод: Профессиональный (многоголосый закадровый) студия Пилот по заказу Нового канала
Режиссер: Кристофер Коппола / Christopher Coppola

В ролях: Роберт Кэррэдайн, Ричард Хиллман, Патрик Килпатрик, Гарретт Моррис, Розанна Аркетт

Описание: Два владельца компании по перевозкам - Палмер и Пирл - должны перевезти через всю страну таинственный ящик. Как выясняется позже, груз имеет религиозное значение и заключает в себе не много не мало как самого Сатану. По следу грузовика отправляются приверженцы культа Дьявола, чтобы освободить своего Хозяина. Как же не допустить гибели человечества?...

Доп. информация: Дорожка MVO (из личной коллекции - запись с ТВ в дорутрекерный период) SuperDVD01

Релиз

Сэмпл: https://yadi.sk/i/UIhm9jYXq2gCr

Качество видео: DVDRip
Формат видео: AVI

Видео: 704x528 (1.33:1), 25 fps, XviD build 73 ~1689 kbps avg, 0.18 bit/pixel
Аудио: 48 kHz, AC3 Dolby Digital, 2 ch, ~192.00 kbps avg
Грузовик Палмера - Palmer's Pick Up [by Edich2].avi
Format : AVI
Format/Info : Audio Video Interleave
File size : 1.36 GiB
Duration : 1h 43mn
Overall bit rate : 1 883 Kbps
Movie name : Грузовик Палмера - Palmer's Pick Up [by Edich2]
Director : by Edich2
Writing application : Nandub v1.0rc2
Comment : RuTracker.org

Video
ID : 0
Format : MPEG-4 Visual
Format profile : Advanced Simple@L5
Format settings, BVOP : 1
Format settings, QPel : No
Format settings, GMC : No warppoints
Format settings, Matrix : Custom
Codec ID : XVID
Codec ID/Hint : XviD
Duration : 1h 43mn
Bit rate : 1 690 Kbps
Width : 704 pixels
Height : 528 pixels
Display aspect ratio : 4:3
Frame rate : 25.000 fps
Color space : YUV
Chroma subsampling : 4:2:0
Bit depth : 8 bits
Scan type : Progressive
Compression mode : Lossy
Bits/(Pixel*Frame) : 0.182
Stream size : 1.22 GiB (90%)
Writing library : XviD 73

Audio
ID : 1
Format : AC-3
Format/Info : Audio Coding 3
Codec ID : 2000
Duration : 1h 38mn
Bit rate mode : Constant
Bit rate : 192 Kbps
Channel(s) : 2 channels
Sampling rate : 48.0 KHz
Compression mode : Lossy
Stream size : 136 MiB (10%)
Alignment : Split accross interleaves
Interleave, duration : 42 ms (1.05 video frame)
Interleave, preload duratio : 500 ms






_________________
Проголосуй за трекер Открытый торрент трекер - RUS-MEDIA.ORG

Проголосуй Открытый торрент трекер - RUS-MEDIA.ORG



реклама партнёра


Вернуться к началу
 Профиль Отправить личное сообщение  
 
   Похожие торренты   Автор   Торрент   Размер 
В этой теме нет новых непрочитанных сообщений. [Analized.com] Giselle Palmer, Prince Yashua (Gisselle Palmer Owned By Big Black Cock / 2017-11-05) Gisselle Palmer Owned By Big Black Cock [2017 г., Teen, BDSM, Big Tits, Black, Blondes, Bush, Fisting, Great Ass, Natural, Roleplay, Gonzo,

salma3

12 | 4

2.2 ГБ

В этой теме нет новых непрочитанных сообщений. [Analized.com] Giselle Palmer (Gisselle Palmer Owned By Big Black Cock / 2017-11-05) [2017 г., Teen, BDSM, Big Tits, Black, Blondes, Bush, Fisting, Great Ass, Natural, Roleplay, Gonzo, IR, Anal, 1080p]

salma3

38 | 13

1.78 ГБ

В этой теме нет новых непрочитанных сообщений. [BurningAngel.com] Joanna Angel, Giselle Palmer - Babysitter Auditions - Giselle Palmer (03.08.2017) 1080p [2017 г., MILF & Young, Punk Porn, Punk Girl, Babysitter, Tattoo, Piercing, Blowjob, All sex, 1080p]

salma3

13 | 4

1.05 ГБ

В этой теме нет новых непрочитанных сообщений. [BurningAngel.com] Giselle Palmer, Joanna Angel - Babysitter Auditions - Giselle Palmer (03.08.2017) [2017 г., Girl/Boy, Girl/Girl, Punk Porn, Big Tits, Punk Girl, Babysitter, Tattoo/Piercing, Ink Queens, Natural Breasts, Dyed Hair, 720p]

salma3

5 | 2

539.87 МБ

В этой теме нет новых непрочитанных сообщений. Подцеплен по-крупному / 52 Pick-Up [Триллер, 1986] DVD9, Dvo

salma3

13 | 22

6.31 ГБ

В этой теме нет новых непрочитанных сообщений. Brandy Aniston / Why Dont You Pick On Someone Your Own Size (2015) HD 720p

Dile-1

94 | 78

453.62 МБ

В этой теме нет новых непрочитанных сообщений. Подцеплен по-крупному / 52 Pick-Up [триллер, криминал, 1986] BDRip, Dvo

salma3

8 | 2

1.49 ГБ


Начать новую тему Ответить на тему  [ 1 сообщение ] 




Для Мосгорсуда, Роскомнадзора и рекламодателей:: mosgorsud-torrent[собачка]yandex.ru