Торрент файл
скачать торрент магнет ссылка Добавлен: 09 мар 2016, 21:48
Размер: 1.36 ГБ
Сидеров: 2
Личеров: 0
Статус: (salma3)
Автор

СообщениеДобавлено: 09 мар 2016, 21:48 

Не в сети
Супермодератор
Аватара пользователя
Дата регистрации:
15 фев 2012, 16:44
Возраст: 27
Спасибо: 5121 / 2089
Сообщения: 17282
Страна: США
Жанр: комедия
Год выпуска: 1999
Продолжительность: 01:43:27

Перевод: Профессиональный (многоголосый закадровый) студия Пилот по заказу Нового канала
Режиссер: Кристофер Коппола / Christopher Coppola

В ролях: Роберт Кэррэдайн, Ричард Хиллман, Патрик Килпатрик, Гарретт Моррис, Розанна Аркетт

Описание: Два владельца компании по перевозкам - Палмер и Пирл - должны перевезти через всю страну таинственный ящик. Как выясняется позже, груз имеет религиозное значение и заключает в себе не много не мало как самого Сатану. По следу грузовика отправляются приверженцы культа Дьявола, чтобы освободить своего Хозяина. Как же не допустить гибели человечества?...

Доп. информация: Дорожка MVO (из личной коллекции - запись с ТВ в дорутрекерный период) SuperDVD01

Релиз

Сэмпл: https://yadi.sk/i/UIhm9jYXq2gCr

Качество видео: DVDRip
Формат видео: AVI

Видео: 704x528 (1.33:1), 25 fps, XviD build 73 ~1689 kbps avg, 0.18 bit/pixel
Аудио: 48 kHz, AC3 Dolby Digital, 2 ch, ~192.00 kbps avg
Грузовик Палмера - Palmer's Pick Up [by Edich2].avi
Format : AVI
Format/Info : Audio Video Interleave
File size : 1.36 GiB
Duration : 1h 43mn
Overall bit rate : 1 883 Kbps
Movie name : Грузовик Палмера - Palmer's Pick Up [by Edich2]
Director : by Edich2
Writing application : Nandub v1.0rc2
Comment : RuTracker.org

Video
ID : 0
Format : MPEG-4 Visual
Format profile : Advanced Simple@L5
Format settings, BVOP : 1
Format settings, QPel : No
Format settings, GMC : No warppoints
Format settings, Matrix : Custom
Codec ID : XVID
Codec ID/Hint : XviD
Duration : 1h 43mn
Bit rate : 1 690 Kbps
Width : 704 pixels
Height : 528 pixels
Display aspect ratio : 4:3
Frame rate : 25.000 fps
Color space : YUV
Chroma subsampling : 4:2:0
Bit depth : 8 bits
Scan type : Progressive
Compression mode : Lossy
Bits/(Pixel*Frame) : 0.182
Stream size : 1.22 GiB (90%)
Writing library : XviD 73

Audio
ID : 1
Format : AC-3
Format/Info : Audio Coding 3
Codec ID : 2000
Duration : 1h 38mn
Bit rate mode : Constant
Bit rate : 192 Kbps
Channel(s) : 2 channels
Sampling rate : 48.0 KHz
Compression mode : Lossy
Stream size : 136 MiB (10%)
Alignment : Split accross interleaves
Interleave, duration : 42 ms (1.05 video frame)
Interleave, preload duratio : 500 ms






_________________



реклама партнёра


Вернуться к началу
 Профиль Отправить личное сообщение  
 
   Похожие торренты   Автор   Торрент   Размер 
В этой теме нет новых непрочитанных сообщений. Robert Palmer - Riptide [HD Remaster] [2013, Rock, MP3]

PriZraK

0 | 1

80.87 МБ

В этой теме нет новых непрочитанных сообщений. Подцеплен по-крупному / 52 Pick-Up [триллер, криминал, 1986] BDRip, Dvo

salma3

8 | 2

1.49 ГБ

В этой теме нет новых непрочитанных сообщений. Brandy Aniston / Why Dont You Pick On Someone Your Own Size (2015) HD 720p

Dile-1

94 | 78

453.62 МБ

В этой теме нет новых непрочитанных сообщений. Robert Palmer - Secrets / Clues / Maybe It's Live (2CD) [2013, Rock, MP3]

PriZraK

2 | 1

275.85 МБ

В этой теме нет новых непрочитанных сообщений. Подцеплен по-крупному / 52 Pick-Up [триллер, криминал, 1986] BDRip 720p, Avo+Sub

salma3

7 | 3

4.08 ГБ

В этой теме нет новых непрочитанных сообщений. Electric Eye - Pick-Up, Lift-Off, Space, Time [2013, Psychedelic Rock, MP3]

PriZraK

0 | 1

91.8 МБ

В этой теме нет новых непрочитанных сообщений. Я и Друг Мой Грузовик - Стилизация Послевкусия [2011, Experimental Rock, Funk Rock, Alternative Rock, MP3]

PriZraK

0 | 1

70.47 МБ


Начать новую тему Ответить на тему  [ 1 сообщение ] 




Для Мосгорсуда, Роскомнадзора и рекламодателей:: mosgorsud-torrent[собачка]yandex.ru