Торрент файл
скачать торрент магнет ссылка Добавлен: 09 мар 2016, 21:38
Размер: 1.46 ГБ
Сидеров: 3
Личеров: 1
Статус: (salma3)
Автор

СообщениеДобавлено: 09 мар 2016, 21:38 

Не в сети
Супермодератор
Аватара пользователя
Дата регистрации:
15 фев 2012, 16:44
Возраст: 28
Спасибо: 6491 / 2129
Сообщения: 41231
Страна: США
Жанр: драма, криминал
Год выпуска: 1992
Продолжительность: 01:38:18

Перевод 1: Профессиональный (двухголосый закадровый) - НТВ+
Перевод 2: Авторский (одноголосый закадровый) - А. Гаврилов
Режиссер: Ник Гомез / Nick Gomez

В ролях: Питер Грин, Иди Фалько, Адам Трези, Арабелла Филд, Пол Шульц, Сол Стайн, Тони Фернандез, Ларри Майстрич, Джеймс Майкл МакКоли, Рик Грель.

Описание: Разговоры о том о сём, посиделки за столом «выпить-закусить», перепалки с женами и подружками, мелкие кражи, продажа краденого — и главный интерес в жизни молодых героев фильма — оружие.



Доп. информация:
Исходник (DVD5) и перевод А. Гаврилова предоставлены Evil ED 86. Спасибо!
За двухголосую озвучку от НТВ+ благодарность отсылается Max Nabokov
Клнвертация в DVDRip и синхронизация русских дорожек - Arle-kino



Качество видео: DVDRip
Формат видео: AVI
Видео: 704x384 (1.83:1), 23.976 fps, XviD build 50 ~1529 kbps avg, 0.24 bit/pixel
Аудио 1: 48 kHz, MPEG Layer 3, 2 ch, ~192.00 kbps avg - DVO (HTB+)
Аудио 2: 48 kHz, AC3 Dolby Digital, 2/0 (L,R) ch, ~192 kbps - AVO (A. Gavrilov)
Аудио 3: 48 kHz, AC3 Dolby Digital, 2/0 (L,R) ch, ~192 kbps - English
General
Complete name : D:\Public\Laws of Gravity (1992)\Laws of Gravity (1992) DVDRip (DVO, AVO, Eng).avi
Format : AVI
Format/Info : Audio Video Interleave
File size : 1.46 GiB
Duration : 1h 38mn
Overall bit rate : 2 126 Kbps
Writing application : VirtualDubMod 1.5.10.2 (build 2542/release)
Writing library : VirtualDubMod build 2542/release

Video
ID : 0
Format : MPEG-4 Visual
Format profile : Advanced Simple@L5
Format settings, BVOP : 1
Format settings, QPel : No
Format settings, GMC : No warppoints
Format settings, Matrix : Default (MPEG)
Codec ID : XVID
Codec ID/Hint : XviD
Duration : 1h 38mn
Bit rate : 1 531 Kbps
Width : 704 pixels
Height : 384 pixels
Display aspect ratio : 16:9
Frame rate : 23.976 fps
Color space : YUV
Chroma subsampling : 4:2:0
Bit depth : 8 bits
Scan type : Progressive
Compression mode : Lossy
Bits/(Pixel*Frame) : 0.236
Stream size : 1.05 GiB (72%)
Writing library : XviD 1.2.1 (UTC 2008-12-04)

Audio #1
ID : 1
Format : MPEG Audio
Format version : Version 1
Format profile : Layer 3
Codec ID : 55
Codec ID/Hint : MP3
Duration : 1h 38mn
Bit rate mode : Constant
Bit rate : 192 Kbps
Channel(s) : 2 channels
Sampling rate : 48.0 KHz
Compression mode : Lossy
Stream size : 135 MiB (9%)
Alignment : Aligned on interleaves
Interleave, duration : 42 ms (1.00 video frame)
Interleave, preload duration : 504 ms
Title : DVO (HTB+)
Writing library : LAME3.98r
Encoding settings : -m s -V 4 -q 2 -lowpass 18.6 -b 192

Audio #2
ID : 2
Format : AC-3
Format/Info : Audio Coding 3
Mode extension : CM (complete main)
Codec ID : 2000
Duration : 1h 38mn
Bit rate mode : Constant
Bit rate : 192 Kbps
Channel(s) : 2 channels
Channel positions : Front: L R
Sampling rate : 48.0 KHz
Bit depth : 16 bits
Compression mode : Lossy
Stream size : 135 MiB (9%)
Alignment : Split accross interleaves
Interleave, duration : 42 ms (1.00 video frame)
Interleave, preload duration : 500 ms
Title : AVO (A. Gavrilov)

Audio #3
ID : 3
Format : AC-3
Format/Info : Audio Coding 3
Mode extension : CM (complete main)
Codec ID : 2000
Duration : 1h 38mn
Bit rate mode : Constant
Bit rate : 192 Kbps
Channel(s) : 2 channels
Channel positions : Front: L R
Sampling rate : 48.0 KHz
Bit depth : 16 bits
Compression mode : Lossy
Stream size : 135 MiB (9%)
Alignment : Split accross interleaves
Interleave, duration : 42 ms (1.00 video frame)
Interleave, preload duration : 500 ms
Title : English


_________________
Проголосуй за трекер Открытый торрент трекер - RUS-MEDIA.ORG

Проголосуй Открытый торрент трекер - RUS-MEDIA.ORG



реклама партнёра


Вернуться к началу
 Профиль Отправить личное сообщение  
 
   Похожие торренты   Автор   Торрент   Размер 
В этой теме нет новых непрочитанных сообщений. Однажды преступив закон / Once Upon a Crime... [комедия, криминал, детектив, 1992] BDRip 1080p, Mvo

salma3

30 | 10

7.92 ГБ

В этой теме нет новых непрочитанных сообщений. Однажды преступив закон / Once Upon a Crime... [комедия, криминал, детектив, 1992] BDRip 720p, Mvo

salma3

104 | 19

4.8 ГБ

В этой теме нет новых непрочитанных сообщений. Свояки / The In-Laws [боевик, триллер, комедия, криминал, приключения, 1979] BDRip, Mvo

salma3

103 | 16

1.45 ГБ

В этой теме нет новых непрочитанных сообщений. Закон страны / Armoton maa [драма, криминал, 2017] HDRip, Mvo

salma3

814 | 183

1.36 ГБ

В этой теме нет новых непрочитанных сообщений. Закон Мерфи / Murphy's Law [боевик, драма, криминал, 1986] HDRip, Mvo

salma3

109 | 7

1.45 ГБ

В этой теме нет новых непрочитанных сообщений. Полицейский отряд L-627 / L.627 [драма, криминал, 1992] DVDRip, Mvo

salma3

99 | 1

1.93 ГБ

В этой теме нет новых непрочитанных сообщений. Закон ночи / Live by Night [драма, криминал, 2016] BDRip, Dub [iTunes]

salma3

1145 | 249

1.46 ГБ


Начать новую тему Ответить на тему  [ 1 сообщение ] 




Для Мосгорсуда, Роскомнадзора и рекламодателей:: mosgorsud-torrent[собачка]yandex.ru