Торрент файл
скачать торрент магнет ссылка Добавлен: 09 мар 2016, 16:13
Размер: 2.14 ГБ
Сидеров: 22
Личеров: 1
Статус: (salma3)
Автор

СообщениеДобавлено: 09 мар 2016, 16:13 

Не в сети
Супермодератор
Аватара пользователя
Дата регистрации:
15 фев 2012, 16:44
Возраст: 27
Спасибо: 5143 / 2090
Сообщения: 17514
Видения / Visions

Перевод: Профессиональный (полное дублирование) iTunes, субтитры : английские
Формат: BDRip-AVC, MKV, H.264, AC3
Страна: США
Режиссер: Кевин Гротерт
Жанр: ужасы, триллер
Продолжительность: 01:22:25
Год выпуска: 2015

В ролях: Айла Фишер, Джим Парсонс, Энсон Маунт, Гиллиан Джейкобс, Ева Лонгория, Джоанна Кэссиди, Джон де Ланси, Джефф Брэнсон, Брайс Джонсон, Роберто «Санс» Санчес

Описание: Чтобы быть рядом со своим мужем, беременная женщина переезжает на виноградную ферму. Там ее начинают одолевать страшные видения…



Видео: 1152x480 (2.40:1), 23.976 fps, AVC MPEG-4 (H.264), ~2890 kbps, 0.218 bit/pixel
Аудио #1: Русский: 48 kHz, AC3 Dolby Digital, 3/2 (L,C,R,l,r) + LFE ch, ~384 kbps [Профессиональный (полное дублирование)]
Аудио #2: Английский: 48 kHz, AC3 Dolby Digital, 3/2 (L,C,R,l,r) + LFE ch, ~448 kbps [Оригинал]

Общее
Уникальный идентификатор : 224552784339014770362318942169102485917 (0xA8EF4B0B93C2284D9C654202DBE7099D)
Полное имя : Videniya.2015.DUAL.BDRip.x264.-HELLYWOOD.mkv
Формат : Matroska
Версия формата : Version 4 / Version 2
Размер файла : 2,14 Гбайт
Длительность : 1 ч. 22 м.
Общий поток : 3719 Кбит/сек
Название фильма : Visions (2015) - HELLYWOOD
Дата кодирования : UTC 2016-02-29 03:38:39
Программа кодирования : mkvmerge v5.9.0 ('On The Loose') built on Dec 15 2012 16:39:58
Библиотека кодирования : libebml v1.3.0 + libmatroska v1.4.0

Видео
Идентификатор : 1
Формат : AVC
Формат/Информация : Advanced Video Кодек
Профиль формата :
Параметр CABAC формата : Да
Параметр ReFrames формата : 10 кадров
Идентификатор кодека : V_MPEG4/ISO/AVC
Длительность : 1 ч. 22 м.
Битрейт : 2890 Кбит/сек
Ширина : 1152 пикселя
Высота : 480 пикселей
Соотношение сторон : 2,40:1
Режим частоты кадров : Постоянный
Частота кадров : 23,976 кадра/сек
Цветовое пространство : YUV
Субдискретизация насыщенности : 4:2:0
Битовая глубина : 8 бит
Тип развёртки : Прогрессивная
Бит/(Пиксели*Кадры) : 0.218
Размер потока : 1,62 Гбайт (76%)
Заголовок : potroks
Библиотека кодирования : x264 core 148 r2665M a01e339
Настройки программы : cabac=1 / ref=10 / deblock=1:-2:-2 / analyse=0x3:0x133 / me=umh / subme=11 / psy=1 / psy_rd=1.05:0.10 / mixed_ref=1 / me_range=48 / chroma_me=1 / trellis=2 / 8x8dct=1 / cqm=0 / deadzone=21,11 / fast_pskip=0 / chroma_qp_offset=-3 / threads=9 / lookahead_threads=2 / sliced_threads=0 / nr=0 / decimate=1 / interlaced=0 / bluray_compat=0 / constrained_intra=0 / bframes=11 / b_pyramid=2 / b_adapt=2 / b_bias=0 / direct=3 / weightb=1 / open_gop=0 / weightp=2 / keyint=240 / keyint_min=23 / scenecut=40 / intra_refresh=0 / rc=2pass / mbtree=0 / bitrate=2890 / ratetol=1.0 / qcomp=0.70 / qpmin=0 / qpmax=69 / qpstep=4 / cplxblur=20.0 / qblur=0.5 / ip_ratio=1.40 / pb_ratio=1.30 / aq=1:0.80
Язык : English
Default : Да
Forced : Нет
Цветовой диапазон : Limited
Основные цвета : BT.709
Характеристики трансфера : BT.709
Коэффициенты матрицы : BT.709

Аудио #1
Идентификатор : 2
Формат : AC-3
Формат/Информация : Audio Coding 3
Расширение режима : CM (complete main)
Параметр Endianness формата : Big
Идентификатор кодека : A_AC3
Длительность : 1 ч. 22 м.
Вид битрейта : Постоянный
Битрейт : 384 Кбит/сек
Каналы : 6 каналов
Расположение каналов : Front: L C R, Side: L R, LFE
Частота : 48,0 КГц
Метод сжатия : С потерями
Размер потока : 226 Мбайт (10%)
Заголовок : Dub | DD 5.1 @ 384 kbps - iTunes
Язык : Russian
Default : Да
Forced : Нет

Аудио #2
Идентификатор : 3
Формат : AC-3
Формат/Информация : Audio Coding 3
Расширение режима : CM (complete main)
Параметр Endianness формата : Big
Идентификатор кодека : A_AC3
Длительность : 1 ч. 22 м.
Вид битрейта : Постоянный
Битрейт : 448 Кбит/сек
Каналы : 6 каналов
Расположение каналов : Front: L C R, Side: L R, LFE
Частота : 48,0 КГц
Метод сжатия : С потерями
Размер потока : 264 Мбайт (12%)
Заголовок : Original | DD 5.1 @ 448 kbps
Язык : English
Default : Нет
Forced : Нет

Текст #1
Идентификатор : 4
Формат : UTF-8
Идентификатор кодека : S_TEXT/UTF8
Идентификатор кодека/Информация : UTF-8 Plain Text
Заголовок : Full
Язык : English
Default : Нет
Forced : Нет

Текст #2
Идентификатор : 5
Формат : UTF-8
Идентификатор кодека : S_TEXT/UTF8
Идентификатор кодека/Информация : UTF-8 Plain Text
Заголовок : SDH
Язык : English
Default : Нет
Forced : Нет

Текст #3
Идентификатор : 6
Формат : UTF-8
Идентификатор кодека : S_TEXT/UTF8
Идентификатор кодека/Информация : UTF-8 Plain Text
Заголовок : SDH-Colored
Язык : English
Default : Нет
Forced : Нет

Меню
00:00:00.000 : :Chapter 01
00:15:55.037 : :Chapter 02
00:25:51.675 : :Chapter 03
00:35:41.889 : :Chapter 04
00:45:43.073 : :Chapter 05
00:57:32.574 : :Chapter 06
01:05:03.608 : :Chapter 07
01:16:27.833 : :Chapter 08





_________________



реклама партнёра


Вернуться к началу
 Профиль Отправить личное сообщение  
 
   Похожие торренты   Автор   Торрент   Размер 
В этой теме нет новых непрочитанных сообщений. Видения / Visions (Кевин Гротерт) [боевик, приключения, 2015] WEB-DLRip, dub [Чистый звук]

Dracon

10782 | 393

1.43 ГБ

В этой теме нет новых непрочитанных сообщений. Видения / Visions (Кевин Гротерт) [боевик, приключения, 2015] WEB-DL 720p, dub [Чистый звук]

Dracon

6877 | 219

2.58 ГБ

В этой теме нет новых непрочитанных сообщений. Смертельные видения / Deadly Visions [Фэнтези, триллер, 2004] DVDRip, Dvo

salma3

15 | 3

1.37 ГБ

В этой теме нет новых непрочитанных сообщений. Anal Visions / Анальные Видения (2016) WEB-DL

amadei

3 | 3

4.05 ГБ

В этой теме нет новых непрочитанных сообщений. 5 чувств страха / Chilling Visions: 5 Senses of Fear [Ужасы, 2013] BDRip 1080p, avo

Dracon

10 | 2

6.67 ГБ

В этой теме нет новых непрочитанных сообщений. 5 чувств страха / Chilling Visions: 5 Senses of Fear [Ужасы, 2013] BDRip 720p, Avo

salma3

30 | 20

4.48 ГБ

В этой теме нет новых непрочитанных сообщений. Видения / Images [ужасы, фэнтези, драма, 1972] DVDRip, Mvo

salma3

12 | 6

1.46 ГБ


Начать новую тему Ответить на тему  [ 1 сообщение ] 




Для Мосгорсуда, Роскомнадзора и рекламодателей:: mosgorsud-torrent[собачка]yandex.ru