Торрент файл
скачать торрент магнет ссылка Добавлен: 09 мар 2016, 14:09
Размер: 1.37 ГБ
Сидеров: 5
Личеров: 2
Статус: (salma3)
Автор

СообщениеДобавлено: 09 мар 2016, 14:09 

Не в сети
Супермодератор
Аватара пользователя
Дата регистрации:
15 фев 2012, 16:44
Возраст: 27
Спасибо: 5134 / 2089
Сообщения: 17379
Кровавый след / Следы красного / Traces of Red

Год выпуска: 1992
Жанр: Триллер , детектив
Режиссер: Энди Волк / Andy Wolk

В ролях: Джеймс Белуши, Лоррейн Бракко, Тони Голдуин, Уильям Расс, Фэй Грант, Мишель Джойнер, Джо Лиси, Виктория Басс, Мелани Томлин, Джим Пиддок

Описание:
Напарники — полицейские Джек и Стив расследуют серию жестоких убийств молодых женщин и выясняется, что с одной из жертв ночь накануне ее убийства провел не кто иной как Джек. А так как его брат выставил свою кандидатуру на выборы в сенат США, семья политика должна быть вне подозрений. Однако в ходе расследования к делу в той или иной степени оказываются причастными все, кого знает Джек. Он начинает получать рифмованные записки с угрозами, на которых вместо подписи запечатлен губной помадой кроваво-красный поцелуй. Ну а после того, как любовница Джека Эллен, участвующая в предвыборной компании его брата, соблазняет Стива, все окончательно запутывается. От подозрений не свободен никто…

Страна: США
Продолжительность: 1:41:37
Перевод: Авторский (одноголосый закадровый) [В.Горчаков]

Файл
Качество: DVDRip
Формат файла: AVI
Видео кодек: XviD
Аудио кодек: AC3
Видео: XviD , 640x480 (1.33:1) ,23.976 fps , 1 729 Kbps
Аудио: AC3 , 48 kHz , 192.00 kbps avg , 2/0 (L,R) ch


Сэмпл:

За звуковую дорожку спасибо Evil ED 86
Complete name Кровавый след 1992.avi
Format : AVI
Format/Info : Audio Video Interleave
File size : 1.37 GiB
Duration : 1h 41mn
Overall bit rate : 1 931 Kbps
Writing library : VirtualDub build 35491/release

Video
ID : 0
Format : MPEG-4 Visual
Format profile : Advanced Simple@L5
Format settings, BVOP : 1
Format settings, QPel : No
Format settings, GMC : No warppoints
Format settings, Matrix : Custom
Codec ID : XVID
Codec ID/Hint : XviD
Duration : 1h 41mn
Bit rate : 1 729 Kbps
Width : 640 pixels
Height : 480 pixels
Display aspect ratio : 4:3
Frame rate : 23.976 (23976/1000) fps
Color space : YUV
Chroma subsampling : 4:2:0
Bit depth : 8 bits
Scan type : Progressive
Compression mode : Lossy
Bits/(Pixel*Frame) : 0.235
Stream size : 1.23 GiB (90%)
Writing library : XviD 1.2.0.dev47 (UTC 2006-11-01)

Audio
ID : 1
Format : AC-3
Format/Info : Audio Coding 3
Mode extension : CM (complete main)
Format settings, Endianness : Big
Codec ID : 2000
Duration : 1h 41mn
Bit rate mode : Constant
Bit rate : 192 Kbps
Channel(s) : 2 channels
Channel positions : Front: L R
Sampling rate : 48.0 KHz
Frame rate : 31.250 fps (1536 spf)
Compression mode : Lossy
Stream size : 140 MiB (10%)
Alignment : Aligned on interleaves
Interleave, duration : 42 ms (1.00 video frame)
Interleave, preload duratio : 512 ms


_________________



реклама партнёра


Вернуться к началу
 Профиль Отправить личное сообщение  
 
   Похожие торренты   Автор   Торрент   Размер 
В этой теме нет новых непрочитанных сообщений. Кровавый след / Blood Trails [ужасы, триллер, 2006] DVDRip, Mvo

salma3

44 | 5

1.47 ГБ

В этой теме нет новых непрочитанных сообщений. Shellshock 2 - Кровавый след [Action (Shooter), 3D, 1st Person, 2009] [Пиратка]

rustorkan

32 | 5

4.27 ГБ

В этой теме нет новых непрочитанных сообщений. Кровавый побег / Blood Run [Триллер, детектив, 1994] DVDRip, Avo

salma3

10 | 1

1.37 ГБ

В этой теме нет новых непрочитанных сообщений. Кровавый залив / Reazione a catena / A Bay of Blood [ужасы, триллер, детектив, 1971] DVDRip, Avo

salma3

3 | 4

1.46 ГБ

В этой теме нет новых непрочитанных сообщений. Остывший след / Cold trail (Бьёрн Бьёрнссон / Björn Brynjúlfur Björnsson) [2006г., Исландия, Дания, детектив, триллер, криминал, DVDRip-AVC] VO + Sub

Alfredovich

11 | 4

2.03 ГБ

В этой теме нет новых непрочитанных сообщений. Горчаков [01-04 из 04] [Боевик, детектив, 2014] SATRip

Dracon

194 | 16

2.41 ГБ

В этой теме нет новых непрочитанных сообщений. Мой кровавый Валентин / My Bloody Valentine [ужасы, триллер, детектив, 1981] HDRip, Mvo

salma3

14 | 4

1.46 ГБ


Начать новую тему Ответить на тему  [ 1 сообщение ] 




Для Мосгорсуда, Роскомнадзора и рекламодателей:: mosgorsud-torrent[собачка]yandex.ru