Торрент файл
скачать торрент магнет ссылка Добавлен: 09 мар 2016, 14:05
Размер: 1.41 ГБ
Сидеров: 2
Личеров: 0
Статус: (salma3)
Автор

СообщениеДобавлено: 09 мар 2016, 14:05 

В сети
Супермодератор
Аватара пользователя
Дата регистрации:
15 фев 2012, 16:44
Возраст: 27
Спасибо: 5130 / 2089
Сообщения: 17350
Дикарь / Savage

Год выпуска: 1996
Жанр: фантастика, боевик, триллер
Режиссер: Ави Нешер / Avi Nesher

В ролях: Оливье Грюнер, Дженнифер Грант, Карио Салем, Кристин Минтер, Сэм МакМюррей, Хершель СпарберТом Шэнли, Майкл Кудлиц, Люк Аскью, Мария фон Харц

Описание:
Алекс получает смертельное ранение во время зверского убийства его семьи, но чудом остается в живых. Древние боги, поднявшие человечество из первобытного состояния, воссоздают его тело и пробуждают дух. Теперь он Дикарь — грозный воин, вооруженный силой и опытом многих тысяч предков. Барроуз, глава самой могущественной компьютерной корпорации, выпускает против Дикаря армию убийц, потому что чувствует, что Дикарь может помешать осуществлению его планов. Дело в том, что в скрытой тысячелетиями от людей в пещере Барроуз обнаружил технологические останки древней расы богов. Открыв Врата перехода в их империю, Барроуз пытается обрести бессмертие, несмотря на то, что запуск этих Врат уничтожит Землю. Дикарю необходимо преодолеть защитные механизмы, созданные древними богами, проникнуть в пещеру и остановить Барроуза.




Страна: США
Продолжительность: 01:35:55
Перевод: Авторский (одноголосый, закадровый) [Петр, Карцев]

Файл
Качество: DVDRip
Формат файла: AVI
Видео кодек: XviD
Аудио кодек: AC3
Видео: 688x528 (1.30:1), 25 fps, XviD build 73 ~1900 kbps avg, 0.21 bit/pixel
Аудио: 48 kHz, AC3 Dolby Digital, 2/0 (L,R) ch, ~192 kbps


За Карцева спасибо Dr. Hell
Complete name : Дикарь 1996.avi
Format : AVI
Format/Info : Audio Video Interleave
File size : 1.41 GiB
Duration : 1h 35mn
Overall bit rate : 2 102 Kbps
Writing application : VirtualDubMod 1.5.10.3 | http://www.virtualdub-fr.org || (build 2550/release)
Writing library : VirtualDubMod build 2550/release

Video
ID : 0
Format : MPEG-4 Visual
Format profile : Advanced Simple@L5
Format settings, BVOP : 2
Format settings, QPel : No
Format settings, GMC : No warppoints
Format settings, Matrix : Custom
Codec ID : XVID
Codec ID/Hint : XviD
Duration : 1h 35mn
Bit rate : 1 900 Kbps
Width : 688 pixels
Height : 528 pixels
Display aspect ratio : 4:3
Frame rate : 25.000 fps
Color space : YUV
Chroma subsampling : 4:2:0
Bit depth : 8 bits
Scan type : Progressive
Compression mode : Lossy
Bits/(Pixel*Frame) : 0.209
Stream size : 1.27 GiB (90%)
Writing library : XviD 73

Audio
ID : 1
Format : AC-3
Format/Info : Audio Coding 3
Mode extension : CM (complete main)
Format settings, Endianness : Big
Codec ID : 2000
Duration : 1h 35mn
Bit rate mode : Constant
Bit rate : 192 Kbps
Channel(s) : 2 channels
Channel positions : Front: L R
Sampling rate : 48.0 KHz
Frame rate : 31.250 fps (1536 spf)
Compression mode : Lossy
Stream size : 132 MiB (9%)
Alignment : Split accross interleaves
Interleave, duration : 40 ms (1.00 video frame)
Interleave, preload duratio : 500 ms


_________________



реклама партнёра


Вернуться к началу
 Профиль Отправить личное сообщение  
 
   Похожие торренты   Автор   Торрент   Размер 
В этой теме нет новых непрочитанных сообщений. Гоген-дикарь / Gauguin the Savage (1980) SATRip | P

PriZraK

188 | 18

1.55 ГБ

В этой теме нет новых непрочитанных сообщений. Дикий Мессия / Savage Messiah [Триллер, драма, 2002] DVDRip, Dub

salma3

79 | 5

1.45 ГБ

В этой теме нет новых непрочитанных сообщений. Боеголовка / Warhead [Боевик, триллер, 1996] DVDRip, Avo

salma3

18 | 1

1.2 ГБ

В этой теме нет новых непрочитанных сообщений. Подделка / Kounterfeit [боевик, триллер, криминал, 1996] DVDRip, Mvo

salma3

25 | 1

1.37 ГБ

В этой теме нет новых непрочитанных сообщений. Электра / Electra [Фантастика, боевик, триллер, 1996] DVDRip, Dvo

salma3

60 | 4

1.46 ГБ

В этой теме нет новых непрочитанных сообщений. Электра / Electra [Фантастика, боевик, триллер, 1996] DVDRip, Dvo

salma3

36 | 10

701.8 МБ

В этой теме нет новых непрочитанных сообщений. Соло / Solo [фантастика, боевик, триллер, 1996] DVDRip-AVC, Mvo+Sub

salma3

4 | 6

1.7 ГБ


Начать новую тему Ответить на тему  [ 1 сообщение ] 




Для Мосгорсуда, Роскомнадзора и рекламодателей:: mosgorsud-torrent[собачка]yandex.ru