Торрент файл
скачать торрент магнет ссылка Добавлен: 09 мар 2016, 12:31
Размер: 1.81 ГБ
Сидеров: 10
Личеров: 3
Статус: (salma3)
Автор

СообщениеДобавлено: 09 мар 2016, 12:31 

В сети
Супермодератор
Аватара пользователя
Дата регистрации:
15 фев 2012, 16:44
Возраст: 27
Спасибо: 5135 / 2089
Сообщения: 17405
Ночные движения / Night Moves

Год выпуска: 2013
Жанр: триллер, драма
Режиссер: Келли Райхардт / Kelly Reichardt

В ролях: Джесси Айзенберг, Дакота Фаннинг, Питер Сарсгаард, Алиа Шокат, Логан Миллер, Кай Леннокс, Кэтрин Уотерстон, Джеймс ЛеГрос, Отумн Нидалния, Бэрри Дель Шерман

Описание:
Фильм расскажет о трех защитниках окружающей среды, которые медленно, но верно приходят к намерению взорвать дамбу.

Страна: США
Продолжительность: 01:52:37
Перевод: [Одноголосый, закадровый] [Михаил. Чадов]
Cубтитры: русские, английские

Файл
Качество: HDRip
Формат файла: AVI
Видео кодек: XviD
Аудио кодек: AC3
Видео: 704x400 (1.76:1), 23.976 fps, XviD build 73 ~1395 kbps avg, 0.21 bit/pixel
Аудио: 48 kHz, AC3 Dolby Digital, 3/2 (L,C,R,l,r) + LFE ch, ~448 kbps [одноголосый]
Аудио: 48 kHz, AC3 Dolby Digital, 3/2 (L,C,R,l,r) + LFE ch, ~448 kbps [оригинал]




Общее
Полное имя : H:\Night.Moves.2013.hdrip_[1.46]_[teko]\Night.Moves.2013.hdrip_[1.46].avi
Формат : AVI
Формат/Информация : Audio Video Interleave
Размер файла : 1,46 Гбайт
Продолжительность : 1 ч. 52 м.
Общий поток : 1853 Кбит/сек
Программа кодирования : VirtualDubMod 1.5.10.3 | http://www.virtualdub-fr.org || (build 2550/release)
Библиотека кодирования : VirtualDubMod build 2550/release

Видео
Идентификатор : 0
Формат : MPEG-4 Visual
Профиль формата : Advanced Simple@L5
Параметр BVOP формата : 2
Параметр QPel формата : Нет
Параметр GMC формата : Без точки перехода
Параметр матрицы формата : Выборочная
Идентификатор кодека : XVID
Идентификатор кодека/Подсказка : XviD
Продолжительность : 1 ч. 52 м.
Битрейт : 1396 Кбит/сек
Ширина : 704 пикселя
Высота : 400 пикселей
Соотношение сторон : 16:9
Частота кадров : 23,976 кадра/сек
Цветовое пространство : YUV
Субдискретизация насыщенности : 4:2:0
Битовая глубина : 8 бит
Тип развёртки : Прогрессивная
Метод сжатия : С потерями
Бит/(Пиксели*Кадры) : 0.207
Размер потока : 1,10 Гбайт (75%)
Библиотека кодирования : XviD 73

Аудио
Идентификатор : 1
Формат : AC-3
Формат/Информация : Audio Coding 3
Расширение режима : CM (complete main)
Параметр Endianness формата : Big
Идентификатор кодека : 2000
Продолжительность : 1 ч. 52 м.
Вид битрейта : Постоянный
Битрейт : 448 Кбит/сек
Каналы : 6 каналов
Расположение каналов : Front: L C R, Side: L R, LFE
Частота : 48,0 КГц
Битовая глубина : 16 бит
Метод сжатия : С потерями
Размер потока : 361 Мбайт (24%)
Выравнивание : Разделение по промежуткам
Продолжительность промежутка : 42 мс. (1,00 видеокадр)
Время предзагрузки промежутка : 500 мс.

Релиз группыВнимание! Присутствует ненормативная лексика.


_________________



реклама партнёра


Вернуться к началу
 Профиль Отправить личное сообщение  
 
   Похожие торренты   Автор   Торрент   Размер 
В этой теме нет новых непрочитанных сообщений. Ночные небеса / Night Skies [Ужасы, Триллер, Драма, 2007] DVDRip, Mvo

salma3

0 | 2

1.37 ГБ

В этой теме нет новых непрочитанных сообщений. Ночные глаза 4 / Night Eyes Four: Fatal Passion [триллер, драма, 1996] DVDRip, Avo

salma3

2 | 3

1.22 ГБ

В этой теме нет новых непрочитанных сообщений. Ночное наблюдение / Ночная стража / Ночные глаза / Night Eyes [Триллер, драма, 1990] DVDRip, Dvo [НТВ][

salma3

86 | 13

747.38 МБ

В этой теме нет новых непрочитанных сообщений. Ночные небеса / Night Skies [ужасы, фантастика, триллер, 2007] WEB-DLRip, Dvo

salma3

51 | 13

1.46 ГБ

В этой теме нет новых непрочитанных сообщений. Ночные небеса / Night Skies [ужасы, фантастика, триллер, 2007] WEB-DL 720p, Dvo

salma3

0 | 0

2.85 ГБ

В этой теме нет новых непрочитанных сообщений. Bob Seger & The Silver Bullet Band-Night Moves [1976, Rock, MP3]

PriZraK

0 | 1

85.39 МБ

В этой теме нет новых непрочитанных сообщений. Взгляд зимы / Cold Comes the Night [Триллер, драма, криминал, 2013] HDRip, Mvo

salma3

381 | 13

1.46 ГБ


Начать новую тему Ответить на тему  [ 1 сообщение ] 




Для Мосгорсуда, Роскомнадзора и рекламодателей:: mosgorsud-torrent[собачка]yandex.ru