Торрент файл
скачать торрент магнет ссылка Добавлен: 08 мар 2016, 22:01
Размер: 1.36 ГБ
Сидеров: 23
Личеров: 7
Статус: (salma3)
Автор

СообщениеДобавлено: 08 мар 2016, 22:01 

В сети
Супермодератор
Аватара пользователя
Дата регистрации:
15 фев 2012, 16:44
Возраст: 27
Спасибо: 5121 / 2089
Сообщения: 17319
Страна: США
Жанр: ужасы, триллер, драма
Год выпуска: 2015
Продолжительность: 01:26:25.185

Перевод: Профессиональный (дублированный) iTunes
Cубтитры: нет
Режиссер: Кевин Гетц / Kevin Goetz / Майкл Гетц / Michael Goetz

В ролях: Тройэн Эвери Беллисарио, Кэйтлин Кармайкл, Кейт Бёртон, Бэйли Ноубл, Тоби Хасс, Лекси ДиБенедетто, Тейлор Джон Смит, Диана Хоппер, Блейк Роббинс, Питер Майкл Гец

Описание: Спустя год после своего исчезновения, десятилетняя Люси неожиданно находится. Девочка так напугана, что не может ни с кем разговаривать и рассказать, что же с ней произошло. Проходит 10 лет. Люси все еще продолжают посещать кошмары и она не оставляет попыток выяснить, что с ней тогда случилось. И когда она, наконец, вместе со своей подругой, приближается вплотную к разгадке тайны, то попадает в новую ловушку. Теперь, если им не удастся найти выход, им грозит страшная и мучительная смерть.
Сэмпл: http://multi-up.com/1092348

Качество видео: BDRip-AVC Blu-Ray (1080p)|kinozal
Формат видео: MKV

Видео: AVC, 1024x428 (2.40:1), 1871 kbps, 23,976 fps, 0,178 bpp
Аудио: 48 kHz, AC3 Dolby Digital, 3/2 (L,C,R,l,r) + LFE ch, ~384 kbps
Формат : Matroska
Версия формата : Version 4 / Version 2
Размер файла : 1,36 Гбайт
Продолжительность : 1 ч. 26 м.
Общий поток : 2255 Кбит/сек
Дата кодирования : UTC 2016-03-08 15:10:46
Программа кодирования : mkvmerge v8.6.1 ('Flying') 32bit
Библиотека кодирования : libebml v1.3.3 + libmatroska v1.4.4

Видео
Идентификатор : 1
Формат : AVC
Формат/Информация : Advanced Video Codec
Профиль формата : High@L4.1
Параметр CABAC формата : Да
Параметр ReFrames формата : 12 кадров
Идентификатор кодека : V_MPEG4/ISO/AVC
Продолжительность : 1 ч. 26 м.
Битрейт : 1871 Кбит/сек
Ширина : 1024 пикселя
Высота : 428 пикселей
Соотношение сторон : 2,40:1
Режим частоты кадров : Постоянный
Частота кадров : 23,976 (24000/1001) кадра/сек
Цветовое пространство : YUV
Субдискретизация насыщенности : 4:2:0
Битовая глубина : 8 бит
Тип развёртки : Прогрессивная
Бит/(Пиксели*Кадры) : 0.178
Размер потока : 1,13 Гбайт (83%)
Библиотека кодирования : x264 core 146 r2538 121396c
Настройки программы : cabac=1 / ref=12 / deblock=1:-3:-3 / analyse=0x3:0x113 / me=umh / subme=11 / psy=1 / psy_rd=1.00:0.00 / mixed_ref=1 / me_range=48 / chroma_me=1 / trellis=2 / 8x8dct=1 / cqm=0 / deadzone=21,11 / fast_pskip=0 / chroma_qp_offset=-2 / threads=12 / lookahead_threads=3 / sliced_threads=0 / nr=0 / decimate=1 / interlaced=0 / bluray_compat=0 / constrained_intra=0 / bframes=13 / b_pyramid=2 / b_adapt=2 / b_bias=0 / direct=3 / weightb=1 / open_gop=0 / weightp=2 / keyint=240 / keyint_min=23 / scenecut=40 / intra_refresh=0 / rc_lookahead=40 / rc=2pass / mbtree=1 / bitrate=1871 / ratetol=1.0 / qcomp=0.60 / qpmin=0 / qpmax=69 / qpstep=4 / cplxblur=20.0 / qblur=0.5 / vbv_maxrate=14000 / vbv_bufsize=14000 / nal_hrd=none / filler=0 / ip_ratio=1.40 / aq=1:1.00
Default : Да
Forced : Нет

Аудио
Идентификатор : 2
Формат : AC-3
Формат/Информация : Audio Coding 3
Расширение режима : CM (complete main)
Параметр Endianness формата : Big
Идентификатор кодека : A_AC3
Продолжительность : 1 ч. 26 м.
Вид битрейта : Постоянный
Битрейт : 384 Кбит/сек
Каналы : 6 каналов
Расположение каналов : Front: L C R, Side: L R, LFE
Частота : 48,0 КГц
Частота кадров : 31,250 кадров/сек (1536 spf)
Метод сжатия : С потерями
Размер потока : 237 Мбайт (17%)
Язык : Russian
Default : Да
Forced : Нет



_________________



реклама партнёра


Вернуться к началу
 Профиль Отправить личное сообщение  
 
   Похожие торренты   Автор   Торрент   Размер 
В этой теме нет новых непрочитанных сообщений. Мученицы / Martyrs [Ужасы, 2015] BDRip 720p, Mvo

Dracon

557 | 47

3.55 ГБ

В этой теме нет новых непрочитанных сообщений. Мученицы / Martyrs [Ужасы, 2015] HDRip, Mvo

Dracon

277 | 13

1.36 ГБ

В этой теме нет новых непрочитанных сообщений. Багровый пик / Crimson Peak [ужасы, фэнтези, триллер, драма, мелодрама, детектив, 2015] BDRip 720p, Dub [iTunes]

Dracon

151 | 9

5.78 ГБ

В этой теме нет новых непрочитанных сообщений. Гризли / Into the Grizzly Maze [ужасы, боевик, триллер, 2015] BDRip 1080p, Mvo [iTunes]

salma3

566 | 143

8.79 ГБ

В этой теме нет новых непрочитанных сообщений. Гризли / Into the Grizzly Maze [ужасы, боевик, триллер, 2015] BDRip 720p, Mvo [iTunes]

salma3

174 | 15

4.65 ГБ

В этой теме нет новых непрочитанных сообщений. Эффект Лазаря / The Lazarus Effect (Дэвид Гелб) [Ужасы, триллер, 2015] BDRip, Dub [iTunes]

Dracon

930 | 72

1.42 ГБ

В этой теме нет новых непрочитанных сообщений. Эффект Лазаря / The Lazarus Effect (Дэвид Гелб) [Ужасы, триллер, 2015] BDRip 1080p, Dub+Sub [iTunes]

Dracon

874 | 68

6.85 ГБ


Начать новую тему Ответить на тему  [ 1 сообщение ] 




Для Мосгорсуда, Роскомнадзора и рекламодателей:: mosgorsud-torrent[собачка]yandex.ru