Торрент файл
скачать торрент магнет ссылка Добавлен: 08 мар 2016, 13:17
Размер: 1.47 ГБ
Сидеров: 0
Личеров: 0
Статус: (salma3)
Автор

СообщениеДобавлено: 08 мар 2016, 13:17 

Не в сети
Супермодератор
Аватара пользователя
Дата регистрации:
15 фев 2012, 16:44
Возраст: 27
Спасибо: 5143 / 2090
Сообщения: 17478
Запах мандарина / L'odeur de la mandarine

Год выхода: 2015
Жанр: Драма, Мелодрама
Режиссер: Жиль Легран

Актеры: Оливье Гурме, Джорджия Скаллет, Дмитрий Сторож, Элен Венсан, Марина Валле, Фред Улисс, Роман Бутей, Мишель Робен, Аликс Бенезеч, Юрбен Канселье

Описание:
1918 год. 22-летняя медсестра Анжела, недавно потерявшая мужа на фронте, одна воспитывает дочь. 48-летний кавалерист Шарль потерял в бою ногу и тихо доживает жизнь в своём поместье. Но волею судеб эти два одиноких сердца встречаются - Анжела устраивается в дом Шарля сиделкой. Постепенно между ними возникает чувство привязанности, которое возвращает Шарлю вкус к жизни, но Анжела оказывается не такой простой и наивной девушкой, как может показаться на первый взгляд...



Производство: Франция / Davis-Films, Epithète Films, France 3 Cinéma
Продолжительность: 01:50:57
Перевод: Одноголосый закадровый, авторский [Антон, Алексеев]

Файл
Качество: BDRip
Формат файла: AVI
Видео кодек: XviD
Аудио кодек: AC
Видео: Xvid, 720x304, ~1435 kbps
Аудио: AC3, 2 ch, 448 kbps, CBR


Код:
Код:
Формат                                   : AVI
Формат/Информация                        : Audio Video Interleave
Размер файла                             : 1,47 Гбайт
Продолжительность                        : 1 ч. 50 м.
Общий поток                              : 1892 Кбит/сек
Программа кодирования                    : VirtualDubMod 1.5.10.2 (build 2540/release)
Библиотека кодирования                   : VirtualDubMod build 2540/release

Видео
Идентификатор                            : 0
Формат                                   : MPEG-4 Visual
Профиль формата                          : Advanced Simple@L5
Параметр BVOP формата                    : 1
Параметр QPel формата                    : Нет
Параметр GMC формата                     : Без точки перехода
Параметр матрицы формата                 : Default (MPEG)
Идентификатор кодека                     : XVID
Идентификатор кодека/Подсказка           : XviD
Продолжительность                        : 1 ч. 50 м.
Битрейт                                  : 1435 Кбит/сек
Ширина                                   : 720 пикселей
Высота                                   : 304 пикселя
Соотношение сторон                       : 2,35:1
Частота кадров                           : 23,976 кадра/сек
Цветовое пространство                    : YUV
Субдискретизация насыщенности            : 4:2:0
Битовая глубина                          : 8 бит
Тип развёртки                            : Прогрессивная
Метод сжатия                             : С потерями
Бит/(Пиксели*Кадры)                      : 0.273
Размер потока                            : 1,11 Гбайт (76%)
Библиотека кодирования                   : XviD 67

Аудио
Идентификатор                            : 1
Формат                                   : AC-3
Формат/Информация                        : Audio Coding 3
Расширение режима                        : CM (complete main)
Параметр Endianness формата              : Big
Идентификатор кодека                     : 2000
Продолжительность                        : 1 ч. 50 м.
Вид битрейта                             : Постоянный
Битрейт                                  : 448 Кбит/сек
Каналы                                   : 6 каналов
Расположение каналов                     : Front: L C R, Side: L R, LFE
Частота                                  : 48,0 КГц
Метод сжатия                             : С потерями
Размер потока                            : 356 Мбайт (24%)
Выравнивание                             : Разделение по промежуткам
Продолжительность промежутка             : 42  мс. (1,00 видеокадр)
Время предзагрузки промежутка            : 500  мс.


_________________



реклама партнёра


Вернуться к началу
 Профиль Отправить личное сообщение  
 
   Похожие торренты   Автор   Торрент   Размер 
В этой теме нет новых непрочитанных сообщений. Запах мандарина / L'odeur de la mandarine [Мелодрама, драма, 2015] BDRip 1080р, Avo+Sub

salma3

275 | 91

9.93 ГБ

В этой теме нет новых непрочитанных сообщений. Запах Мандаринки / L'odeur de la mandarine (Жиль Легран / Gilles Legrand) [2015г., Франция, мелодрама, драма, BDRip] AVO

Alfredovich

23 | 7

1.47 ГБ

В этой теме нет новых непрочитанных сообщений. Запах ночи / L’Odore della notte [Триллер, криминал, драма, 1998] SATRip, Mvo

salma3

32 | 6

702.95 МБ

В этой теме нет новых непрочитанных сообщений. Век Адалин / The Age of Adaline [Драма, Мелодрама, 2015] BDRip-AVC, Dub+Sub [iTunes]

Dracon

386 | 26

2.13 ГБ

В этой теме нет новых непрочитанных сообщений. Все, что у меня есть / Freeheld [драма, мелодрама, биография, 2015] BDRip, Dvo+Avo

salma3

221 | 4

1.51 ГБ

В этой теме нет новых непрочитанных сообщений. План Мэгги / Maggie's Plan [драма, мелодрама, комедия, 2015] BDRip, Mvo

salma3

91 | 13

2.18 ГБ

В этой теме нет новых непрочитанных сообщений. Уже скучаю по тебе / Miss You Already [Драма, мелодрама, комедия, 2015] BDRip 720p, dvo

Dracon

995 | 90

4.52 ГБ


Начать новую тему Ответить на тему  [ 1 сообщение ] 




Для Мосгорсуда, Роскомнадзора и рекламодателей:: mosgorsud-torrent[собачка]yandex.ru