Торрент файл
скачать торрент магнет ссылка Добавлен: 08 мар 2016, 13:05
Размер: 1.16 ГБ
Сидеров: 271
Личеров: 25
Статус: (salma3)
Автор

СообщениеДобавлено: 08 мар 2016, 13:05 

Не в сети
Супермодератор
Аватара пользователя
Дата регистрации:
15 фев 2012, 16:44
Возраст: 27
Спасибо: 5143 / 2090
Сообщения: 17499
Плесень с планеты Ксонадер / The Mildew from Planet Xonader

Год выпуска: 2015
Жанр: Ужасы, фантастика, боевик, трэш
Режиссер: Джулио Де Санти и Нейл Мешино

В ролях: Эдвард И. Янг, Майк Келлер, Лоуренс Джордж, Рик Хеймс, Крис Джентиле, Ардис Кэмпбелл, Дэвид Прингл, Николас Руссо, Кристиан Рива

Описание:
Год 1984. Исследователи лаборатории Бентан Labs празднуют завершение своего новейшего проекта оружия: неизвестный ранее тип плесени, способный распространять и ...



Страна: США
Продолжительность: 01:21:04
Перевод: Любительский (одноголосый закадровый) [МЕГАПЫХАРЬ]

Файл
Качество: DVDRip-AVC
Формат файла: MKV
Видео кодек: H.264
Аудио кодек: MP3
Видео: 1920x1072 (16:9), 25,000 fps, MPEG4 AVC (х263) Simple@L1,~1749 Kbps, 0.034 bit/pixel
Аудио: 44.100 kHz, MPEG Layer 3, 2 ch, 256 kbps avg



Общее
Уникальный идентификатор : 243192827356116134205463332973902534254 (0xB6F53C1EE706D9858021621E7103966E)
Полное имя : E:\Закачка-2\The Mildew.mkv
Формат : Matroska
Версия формата : Version 4 / Version 2
Размер файла : 1,16 Гбайт
Продолжительность : 1 ч. 21 м.
Общий поток : 2046 Кбит/сек
Дата кодирования : UTC 2016-03-07 12:31:52
Программа кодирования : mkvmerge v8.4.0 ('A better way to fly') 32bit
Библиотека кодирования : libebml v1.3.1 + libmatroska v1.4.2

Видео
Идентификатор : 1
Формат : MPEG-4 Visual
Профиль формата : Simple@L1
Параметр BVOP формата : Нет
Параметр QPel формата : Нет
Параметр GMC формата : Без точки перехода
Параметр матрицы формата : Default (H.263)
Идентификатор кодека : V_MPEG4/ISO/ASP
Идентификатор кодека/Информация : Advanced Simple Profile
Продолжительность : 1 ч. 21 м.
Битрейт : 1749 Кбит/сек
Ширина : 1920 пикселей
Высота : 1072 пикселя
Соотношение сторон : 16:9
Режим частоты кадров : Постоянный
Частота кадров : 25,000 кадров/сек
Цветовое пространство : YUV
Субдискретизация насыщенности : 4:2:0
Битовая глубина : 8 бит
Тип развёртки : Прогрессивная
Метод сжатия : С потерями
Бит/(Пиксели*Кадры) : 0.034
Размер потока : 1014 Мбайт (85%)
Библиотека кодирования : Lavc52.37.0
Default : Да
Forced : Нет

Аудио
Идентификатор : 2
Формат : MPEG Audio
Версия формата : Version 1
Профиль формата : Layer 3
Идентификатор кодека : A_MPEG/L3
Идентификатор кодека/Подсказка : MP3
Продолжительность : 1 ч. 21 м.
Вид битрейта : Постоянный
Битрейт : 256 Кбит/сек
Каналы : 2 канала
Частота : 44,1 КГц
Метод сжатия : С потерями
Размер потока : 148 Мбайт (13%)
Default : Да
Forced : Нет




_________________



реклама партнёра


Вернуться к началу
 Профиль Отправить личное сообщение  
 
   Похожие торренты   Автор   Торрент   Размер 
В этой теме нет новых непрочитанных сообщений. Плесень с планеты Ксонадер / The Mildew from Planet Xonader [ужасы, фантастика, боевик, 2015] DVDRip, Avo

salma3

194 | 13

1.37 ГБ

В этой теме нет новых непрочитанных сообщений. Страшные мультфильмы / Terror Toons (Джо Кастро) [2002, ужасы, комедия, трэш, DVDRip] avo

Nickolas3435

58 | 6

1.33 ГБ

В этой теме нет новых непрочитанных сообщений. Пришелец с другой планеты / Not of This Earth [Фантастика, 1995] DVDRip-AVC, Avo

salma3

1 | 3

1.37 ГБ

В этой теме нет новых непрочитанных сообщений. Глаз разума / The Mind's Eye [ужасы, фантастика, боевик, 2015] WEB-DLRip, Mvo

salma3

236 | 22

1.37 ГБ

В этой теме нет новых непрочитанных сообщений. Нация Z / Z Nation [02х01-15 из 15] [ужасы, фантастика, боевик, 2015] WEB-DLRip, Mvo [LostFilm]

Dracon

206 | 124

8.06 ГБ

В этой теме нет новых непрочитанных сообщений. Нация Z / Z Nation [02х01-15 из 15] [ужасы, фантастика, боевик, 2015] WEB-DLRip 1080p, Mvo [LostFilm]

Dracon

44 | 30

26.69 ГБ

В этой теме нет новых непрочитанных сообщений. Убить заново / Перезагрузка / Re-Kill [ужасы, фантастика, боевик, триллер, 2015] WEB-DLRip, Dvo

salma3

2458 | 139

1.45 ГБ


Начать новую тему Ответить на тему  [ 1 сообщение ] 




Для Мосгорсуда, Роскомнадзора и рекламодателей:: mosgorsud-torrent[собачка]yandex.ru