Торрент файл
скачать торрент магнет ссылка Добавлен: 07 мар 2016, 22:38
Размер: 1.37 ГБ
Сидеров: 2
Личеров: 0
Статус: (salma3)
Автор

СообщениеДобавлено: 07 мар 2016, 22:38 

Не в сети
Супермодератор
Аватара пользователя
Дата регистрации:
15 фев 2012, 16:44
Возраст: 27
Спасибо: 5131 / 2089
Сообщения: 17376
Волкодав / По прозвищу: Росомаха / Code Name: Wolverine

Год выпуска: 1996
Жанр: Боевик
Режиссер: Дэвид Джексон / David Jackson

В ролях: Антонио Сабато мл., Трейси Линд, Дэнни Куинн, Ричард Брукс, Мэттью Кокс, Урбано Барберини, Сэм Дуглас, Брайан Протеро, Джеффри Викхэм, Рамон Тикарам

Описание:
В кейсе с контрабандой находится концентрированный наркотик, стоимостью двести миллионов долларов, который в аэропорту по ошибке получает герой фильма, бывший спецназовец морского флота США Гарри Гордони. Чтобы вернуть чемодан, мафия похищает его сына, и Гарри ничего не остается, как применить на деле все свои боевые навыки.

Страна: США
Продолжительность: 01:24:45
Перевод: Авторский (одноголосый закадровый) [Юрий Живов]

Файл
Качество: DVDRip
Формат файла: AVI
Видео кодек: XviD
Аудио кодек: AC3
Видео: XviD build 73, 640x480 (1.33:1), 23.976 fps, 2107 kbps avg, 0.29 bit/pixel
Аудио: AC3 Dolby Digital, 48000Hz, 2/0 (L,R) ch (mono), 192.00 kbps avg


Сэмпл:

Волкодав - Code Name - Wolverine [by ale_x2008].avi
Format : AVI
Format/Info : Audio Video Interleave
File size : 1.37 GiB
Duration : 1h 29mn
Overall bit rate : 2 180 Kbps
Movie name : Волкодав - Code Name - Wolverine [by ale_x2008]
Director : by ale_x2008
Writing application : VirtualDubMod 1.5.10.3 (build 2550/release)
Copyright : Edich2
Comment : RuTracker.org

Video
ID : 0
Format : MPEG-4 Visual
Format profile : Advanced Simple@L5
Format settings, BVOP : 1
Format settings, QPel : No
Format settings, GMC : No warppoints
Format settings, Matrix : Custom
Codec ID : XVID
Codec ID/Hint : XviD
Duration : 1h 29mn
Bit rate : 1 978 Kbps
Width : 640 pixels
Height : 480 pixels
Display aspect ratio : 4:3
Frame rate : 23.976 (23976/1000) fps
Color space : YUV
Chroma subsampling : 4:2:0
Bit depth : 8 bits
Scan type : Progressive
Compression mode : Lossy
Bits/(Pixel*Frame) : 0.269
Stream size : 1.24 GiB (91%)
Writing library : XviD 73

Audio
ID : 1
Format : AC-3
Format/Info : Audio Coding 3
Mode extension : CM (complete main)
Format settings, Endianness : Big
Codec ID : 2000
Duration : 1h 29mn
Bit rate mode : Constant
Bit rate : 192 Kbps
Channel(s) : 2 channels
Channel positions : Front: L R
Sampling rate : 48.0 KHz
Frame rate : 31.250 fps (1536 spf)
Compression mode : Lossy
Stream size : 123 MiB (9%)
Alignment : Split accross interleaves
Interleave, duration : 42 ms (1.00 video frame)
Interleave, preload duratio : 500 ms
Дорожка с Ю. Живовым синхронизирована, ремастерирована и наложена ale_x2008 при помощи Adobe Audition, iZotope RX2, Sony Vegas и VirtualDubMod.
За оцифрованную с VHS дорожку благодарим - Fikaloid


Релиз


_________________



реклама партнёра


Вернуться к началу
 Профиль Отправить личное сообщение  
 
   Похожие торренты   Автор   Торрент   Размер 
В этой теме нет новых непрочитанных сообщений. Росомаха: Бессмертный / The Wolverine [Фантастика, Боевик, Триллер, Приключения, 2013] HDRip, Avo [Дольский]

salma3

55 | 12

1.47 ГБ

В этой теме нет новых непрочитанных сообщений. По прозвищу Танцор / Прозвище Танцор / Операция «Танцор» / Her Secret Life /Code name Dancer [,Боевик, триллер, драма, приключения, 1987] DVDRip, AVO

salma3

2 | 1

1.45 ГБ

В этой теме нет новых непрочитанных сообщений. Код «Омега» / The Omega Code [боевик, триллер, драма, 1999] DVDRip, Mvo+Sub

salma3

14 | 3

1.46 ГБ

В этой теме нет новых непрочитанных сообщений. Four-O-Five Code - Four-O-Five Code [2013, Melodic Death Metal, MP3]

PriZraK

0 | 1

119.35 МБ

В этой теме нет новых непрочитанных сообщений. Варкрафт / Warcraft [фэнтези, боевик, приключения, 2016] BDRip, Avo [Живов]

salma3

25 | 8

2.19 ГБ

В этой теме нет новых непрочитанных сообщений. Эволюция Борна / The Bourne Legacy [Боевик, Триллер, Детектив, 2012] HDRip, Avo [Живов]

salma3

150 | 8

1.46 ГБ

В этой теме нет новых непрочитанных сообщений. Восхождение Юпитер / Jupiter Ascending [фантастика, боевик, приключения, 2015] HDRip, Avo [Живов]

salma3

943 | 57

1.45 ГБ


Начать новую тему Ответить на тему  [ 1 сообщение ] 




Для Мосгорсуда, Роскомнадзора и рекламодателей:: mosgorsud-torrent[собачка]yandex.ru