Торрент файл
скачать торрент магнет ссылка Добавлен: 07 мар 2016, 22:36
Размер: 1.4 ГБ
Сидеров: 1
Личеров: 0
Статус: (salma3)
Автор

СообщениеДобавлено: 07 мар 2016, 22:36 

Не в сети
Супермодератор
Аватара пользователя
Дата регистрации:
15 фев 2012, 16:44
Возраст: 27
Спасибо: 5130 / 2089
Сообщения: 17350
Страна: США
Жанр: Детектив , триллер
Год выпуска: 1990
Продолжительность: 1:23:43

Перевод: Авторский (одноголосый закадровый) С.Кузнецов
Cубтитры: нет
Режиссер: Фриц Кирш / Fritz Kiersch, Алан Смити / Alan Smithee

В ролях: Кристофер Аткинс, Аманда Петерсон, Мэри Фрэнн, Джеймс Римар, Пегги Липтон,Эндрю Робинсон, Лар Парк-Линкольн, Роберт Уокер мл.Шелли Смит, Эндрю Лоури

Описание: В поисках достойного бойфренда школьница Вэлери наконец встречает своего принца — Адама Бреннана , обвиняемого в изнасиловании и убийстве шести молодых девушек. Адама Бреннана ждёт смертная казнь. Девушка не теряя надежды встретиться с ним ведёт переписку по почте, у них платоническая любовь. Ведь он же милый парень , который не мог совершить все эти убийства. Виновен ли он во всех этих преступлениях , или нет ?

Доп. информация: За звуковую дорожку спасибо Evil ED 86
За видеоряд Ledy_X и edich2

Сэмпл: https://www.sendspace.com/file/187fje

Качество видео: HDTVRip
Формат видео: AVI
Видео: 720x400 (1.80:1), 25 fps, XviD build 50 ~2199 kbps avg, 0.30 bit/pixel
Аудио: 48 kHz, AC3 Dolby Digital, 2/0 (L,R) ch, ~192 kbps
Complete name Смертельное очарование 1990.avi
Format : AVI
Format/Info : Audio Video Interleave
File size : 1.40 GiB
Duration : 1h 23mn
Overall bit rate : 2 402 Kbps
Movie name : Смертельное очарование - Fatal Charm [Rip by Ledy_X]
Director : Rip by Ledy_X
Writing application : Nandub v1.0rc2
Copyright : Edich2
Comment : RuTracker.org

Video
ID : 0
Format : MPEG-4 Visual
Format profile : Advanced Simple@L5
Format settings, BVOP : 2
Format settings, QPel : No
Format settings, GMC : No warppoints
Format settings, Matrix : Custom
Codec ID : XVID
Codec ID/Hint : XviD
Duration : 1h 23mn
Bit rate : 2 200 Kbps
Width : 720 pixels
Height : 400 pixels
Display aspect ratio : 16:9
Frame rate : 25.000 fps
Color space : YUV
Chroma subsampling : 4:2:0
Bit depth : 8 bits
Scan type : Progressive
Compression mode : Lossy
Bits/(Pixel*Frame) : 0.306
Stream size : 1.29 GiB (92%)
Writing library : XviD 1.2.1 (UTC 2008-12-04)

Audio
ID : 1
Format : AC-3
Format/Info : Audio Coding 3
Mode extension : CM (complete main)
Format settings, Endianness : Big
Codec ID : 2000
Duration : 1h 23mn
Bit rate mode : Constant
Bit rate : 192 Kbps
Channel(s) : 2 channels
Channel positions : Front: L R
Sampling rate : 48.0 KHz
Frame rate : 31.250 fps (1536 spf)
Compression mode : Lossy
Delay relative to video : 20ms
Stream size : 115 MiB (8%)
Alignment : Split accross interleaves
Interleave, duration : 40 ms (1.00 video frame)
Interleave, preload duratio : 500 ms


_________________



реклама партнёра


Вернуться к началу
 Профиль Отправить личное сообщение  
 
   Похожие торренты   Автор   Торрент   Размер 
В этой теме нет новых непрочитанных сообщений. Смертельная поездка / Смертельная прогулка / Mortelle randonnee [триллер, криминал, детектив, 1983] DVDRip, Avo

salma3

0 | 6

1.56 ГБ

В этой теме нет новых непрочитанных сообщений. Смертельное наследство / Наследство / In Her Mother's Footsteps [триллер, драма, детектив, 2006] HDTVRip, Mvo

salma3

57 | 3

1.46 ГБ

В этой теме нет новых непрочитанных сообщений. Цена убийства / Fatal Instinct [триллер, 1992] HDTVRip, Dvo [НТВ+]

salma3

26 | 4

1.37 ГБ

В этой теме нет новых непрочитанных сообщений. Смертельное благословение / Deadly Blessing [ужасы, триллер, детектив, 1981] BDRip, Mvo+Avo

salma3

16 | 4

1.46 ГБ

В этой теме нет новых непрочитанных сообщений. Инициация: Тихая ночь, смертельная ночь 4 / Initiation: Silent Night, Deadly Night 4 [ужасы, триллер, 1990] DVDRip, Avo

salma3

127 | 304

1.37 ГБ

В этой теме нет новых непрочитанных сообщений. Fatal Force - Fatal Force [2006, Hard'n'Heavy, MP3]

PriZraK

0 | 1

120.64 МБ

В этой теме нет новых непрочитанных сообщений. Два Джейка / The Two Jakes [Детектив, 1990] HDTVRip 720p, Mvo+Avo+Sub

salma3

13 | 4

4.93 ГБ


Начать новую тему Ответить на тему  [ 1 сообщение ] 




Для Мосгорсуда, Роскомнадзора и рекламодателей:: mosgorsud-torrent[собачка]yandex.ru