Торрент файл
скачать торрент магнет ссылка Добавлен: 07 мар 2016, 22:34
Размер: 1.43 ГБ
Сидеров: 1
Личеров: 0
Статус: (salma3)
Автор

СообщениеДобавлено: 07 мар 2016, 22:34 

Не в сети
Супермодератор
Аватара пользователя
Дата регистрации:
15 фев 2012, 16:44
Возраст: 27
Спасибо: 5135 / 2089
Сообщения: 17409
Страна: Великобритания, Канада
Жанр: фантастика
Год выпуска: 1993
Продолжительность: 01:18:13

Перевод: Профессиональный (многоголосый закадровый)
Cубтитры: нет
Режиссер: Филип Джексон / Philip Jackson

В ролях: эвид Ферри, Ольга Прохорова, Кен Лэмер, Роберт Рассел, Денис Маклауд

Описание: События фильма разворачиваются в ХХIII веке. Группа ученых-экспериментаторов берет на себя смелость создать новых Адама и Еву: Адамом должен стать астронавт-алкоголик, Евой - инопланетянка. Результат титанических усилий экспериментаторов оказался неожиданным: между мужчинами и женщинами начинается настоящая война.

Доп. информация: За предоставленный фильм (из личной коллекции) спасибо SuperDVD01

Релиз

Сэмпл: https://yadi.sk/i/g761WEpnpy7xu

Качество видео: TVRip
Формат видео: AVI
Видео: 512x384 (1.33:1), 25 fps, DivX MPEG-4 Low-Motion ~2417 kbps avg, 0.49 bit/pixel
Аудио: 48 kHz, AC3 Dolby Digital, 2/0 (L,R) ch, ~192 kbps
Проект Генезис - Strange Horizons [Project Genesis] [by Edich2] .avi
Format : AVI
Format/Info : Audio Video Interleave
File size : 1.43 GiB
Duration : 1h 18mn
Overall bit rate : 2 619 Kbps
Movie name : Проект Генезис - Strange Horizons [Project Genesis] [by Edich2]
Director : by SuperDVD01
Writing application : VirtualDubMod 1.5.10.2 (build 2540/release)
Copyright : Edich2
Comment : RuTracker.org

Video
ID : 0
Format : MPEG-4 Visual
Codec ID : DIV3
Codec ID/Hint : DivX 3 Low
Duration : 1h 18mn
Bit rate : 2 418 Kbps
Width : 512 pixels
Height : 384 pixels
Display aspect ratio : 4:3
Frame rate : 25.000 fps
Color space : YUV
Chroma subsampling : 4:2:0
Bit depth : 8 bits
Compression mode : Lossy
Bits/(Pixel*Frame) : 0.492
Stream size : 1.32 GiB (92%)

Audio
ID : 1
Format : AC-3
Format/Info : Audio Coding 3
Mode extension : CM (complete main)
Format settings, Endianness : Big
Codec ID : 2000
Duration : 1h 18mn
Bit rate mode : Constant
Bit rate : 192 Kbps
Channel(s) : 2 channels
Channel positions : Front: L R
Sampling rate : 48.0 KHz
Frame rate : 31.250 fps (1536 spf)
Compression mode : Lossy
Stream size : 107 MiB (7%)
Alignment : Split accross interleaves
Interleave, duration : 40 ms (1.00 video frame)
Interleave, preload duratio : 500 ms




_________________



реклама партнёра


Вернуться к началу
 Профиль Отправить личное сообщение  
 
   Похожие торренты   Автор   Торрент   Размер 
В этой теме нет новых непрочитанных сообщений. Странные дни / Strange Days [фантастика, боевик, триллер, драма, криминал, 1995] BDRip 1080p, Mvo+Avo+Sub

salma3

74 | 21

14.95 ГБ

В этой теме нет новых непрочитанных сообщений. Междоусобный проект / Смертельный проект / The Internecine Project [Триллер, 1974] DVDRip, Avo

salma3

23 | 3

1.46 ГБ

В этой теме нет новых непрочитанных сообщений. Манхэттенский проект / The Manhattan Project [фантастика, триллер, 1986] BDRip 720p, Mvo

salma3

6 | 3

7.94 ГБ

В этой теме нет новых непрочитанных сообщений. Мой научный проект / My Science Project [фантастика, боевик, комедия, приключения, 1985] BDRip, Mvo

salma3

22 | 3

1.46 ГБ

В этой теме нет новых непрочитанных сообщений. Мой научный проект / My Science Project [фантастика, боевик, комедия, приключения, 1985] BDRip 720p, Mvo

salma3

2 | 1

4.66 ГБ

В этой теме нет новых непрочитанных сообщений. Проект 12: Бункер / Project 12: The Bunker (Джейми Фалеро / Jaime Falero) [2016г., Испания, фантастика, боевик, триллер, приключения, WEB-DLRip] VO

Alfredovich

42 | 7

760.22 МБ

В этой теме нет новых непрочитанных сообщений. Discovery. Поиск пришельцев. Странные огни и похищение / Discovery. Uncovering Aliens. Strange lights and abduction [документальный, 2014] SATRip, Avo

salma3

5 | 5

358.04 МБ


Начать новую тему Ответить на тему  [ 1 сообщение ] 




Для Мосгорсуда, Роскомнадзора и рекламодателей:: mosgorsud-torrent[собачка]yandex.ru