Торрент файл
скачать торрент магнет ссылка Добавлен: 07 мар 2016, 17:15
Размер: 1.45 ГБ
Сидеров: 2
Личеров: 0
Статус: (salma3)
Автор

СообщениеДобавлено: 07 мар 2016, 17:15 

Не в сети
Супермодератор
Аватара пользователя
Дата регистрации:
15 фев 2012, 16:44
Возраст: 27
Спасибо: 5139 / 2090
Сообщения: 17432
Страна: США
Жанр: Мелодрама, криминал
Год выпуска: 1992
Продолжительность: 1:30:21

Перевод: Авторский (одноголосый закадровый) В.Горчаков
Cубтитры: нет
Режиссер: Лоуренс Ланофф / Lawrence Lanoff

В ролях: Джоди Фишер, Джеймс Кваттрочи, Ричард Эбботт, Кристи Дукати, Heather McTague, Майкл Томпсон, Джаред МакВэй, Уолтер Уивер, Phyllis Lanoff, Лоуренс Ланофф

Описание: Рэйчел Тэйлор – красивая, сексуальная и не счастлива в браке со своим мужем Томом. Рэйчел крутит роман с барменом Риком.Оказавшись в сетях секса и измен она не догадывается о том , что её муж также крутит интрижку со своей любовницей. Однажды она узнаёт , что её муж Том нанял Рика дабы тот соблазнил её , тем самым получить основание для развода. Том и Рик даже не подозревают , что Рэйчел уже давно вынашивает свой план.

Доп. информация: За VHS Rip благодарность Evil ED 86

Сэмпл: https://www.sendspace.com/file/u3gjt5

Качество видео: VHSRip
Формат видео: AVI
Видео: XviD , 640x480 (1.33:1) ,25.000 fps , 2 100 Kbps
Аудио: AC3 , 48 kHz , 192.00 kbps avg , 2/0 (L,R) ch
Complete name Интимная Одержимость (VHS) 1992.avi
Format : AVI
Format/Info : Audio Video Interleave
File size : 1.45 GiB
Duration : 1h 30mn
Overall bit rate : 2 301 Kbps
Writing application : VirtualDubMod 1.5.10.3 | http://www.virtualdub-fr.org || (build 2550/release)
Writing library : VirtualDubMod build 2550/release

Video
ID : 0
Format : MPEG-4 Visual
Format profile : Advanced Simple@L5
Format settings, BVOP : 1
Format settings, QPel : No
Format settings, GMC : No warppoints
Format settings, Matrix : Custom
Codec ID : XVID
Codec ID/Hint : XviD
Duration : 1h 30mn
Bit rate : 2 100 Kbps
Width : 640 pixels
Height : 480 pixels
Display aspect ratio : 4:3
Frame rate : 25.000 fps
Color space : YUV
Chroma subsampling : 4:2:0
Bit depth : 8 bits
Scan type : Progressive
Compression mode : Lossy
Bits/(Pixel*Frame) : 0.273
Stream size : 1.33 GiB (91%)
Writing library : XviD 73

Audio
ID : 1
Format : AC-3
Format/Info : Audio Coding 3
Mode extension : CM (complete main)
Format settings, Endianness : Big
Codec ID : 2000
Duration : 1h 30mn
Bit rate mode : Constant
Bit rate : 192 Kbps
Channel(s) : 2 channels
Channel positions : Front: L R
Sampling rate : 48.0 KHz
Frame rate : 31.250 fps (1536 spf)
Compression mode : Lossy
Stream size : 124 MiB (8%)
Alignment : Split accross interleaves
Interleave, duration : 40 ms (1.00 video frame)
Interleave, preload duratio : 500 ms


_________________



реклама партнёра


Вернуться к началу
 Профиль Отправить личное сообщение  
 
   Похожие торренты   Автор   Торрент   Размер 
В этой теме нет новых непрочитанных сообщений. Intimate Obsessions / Интимная Одержимость (Mike Quasar / Third Degree Films) (Jillian Janson, Daisy Haze, AJ Applegate, Bianca Breeze, Anthony Rosano...) [2015 г., Straight, Oral, Pantyhose & Stocking, Lingerie, WEB-DL 480p] Split Scenes

friizze

207 | 121

1.02 ГБ

В этой теме нет новых непрочитанных сообщений. Сексуальная одержимость / Evil Obsession [Триллер, 1996] VHSRip, Avo

salma3

18 | 4

1.37 ГБ

В этой теме нет новых непрочитанных сообщений. Private Gold 185: Intimate Studio / Интимная Студия (Private) (Chelsey Lanette, Tina Kay, Stella Cox, Misha Cross) [2014 г., All Sex, Big Butt, Young, Group, WEB-DL 480p]

friizze

5 | 4

1.47 ГБ

В этой теме нет новых непрочитанных сообщений. Office Obsession 5 / Офисная Одержимость 5 (Babes) [2016 г., All Sex, Gonzo, Office, Oral, Young, HDRip, 1080p]

max77777

3 | 1

4.91 ГБ

В этой теме нет новых непрочитанных сообщений. Объект страсти / Object of Obsession [драма, мелодрама, 1994] DVDRip, Mvo

salma3

169 | 48

859.63 МБ

В этой теме нет новых непрочитанных сообщений. Девлин / Devlin [боевик, драма, 1992] VHSRip, Avo

salma3

11 | 4

746.01 МБ

В этой теме нет новых непрочитанных сообщений. Одержимость / Уикер-парк / Wicker Park [Мелодрама, Триллер, Драма, 2004] HDTVRip 720p, Dvo+Sub

salma3

100 | 8

4.68 ГБ


Начать новую тему Ответить на тему  [ 1 сообщение ] 




Для Мосгорсуда, Роскомнадзора и рекламодателей:: mosgorsud-torrent[собачка]yandex.ru