Торрент файл
скачать торрент магнет ссылка Добавлен: 07 мар 2016, 17:12
Размер: 1.04 ГБ
Сидеров: 5
Личеров: 2
Статус: (salma3)
Автор

СообщениеДобавлено: 07 мар 2016, 17:12 

В сети
Супермодератор
Аватара пользователя
Дата регистрации:
15 фев 2012, 16:44
Возраст: 28
Спасибо: 6565 / 2130
Сообщения: 43731
Страна: США
Жанр: Криминал , драма
Год выпуска: 1996
Продолжительность: 1:30:55

Перевод: Авторский (одноголосый закадровый) С.Визгунов
Cубтитры: Греческие
Оригинальная аудиодорожка: английский

Режиссер: Артур Пенн / Arthur Penn

В ролях: Найджел Хоторн, Эрик Столц, Луис Госсет мл., Йен Робертс, Луис ван Никерк, Джанин Эсер, Джерри Мофокенг, Патрик Шай, Росс Преллер, Джошуа Линдберг

Описание: Действие политической драмы происходит в Южной Африке в 1988 году и посвящена она борцам с апартеидом. Главный герой, Марти Стрэйден (Столц) из уважаемой профессорской белой семьи, обвиняемый в саботаже и терроризме (согласился спрятать оружие борцов за свободу), брошен в тюрьму, где между допросами его избивают. В той же тюрьме сидит его любимая девушка, которую следователь (Хоторн) использует для того, чтобы добиться от него сотрудничества. Одиночная камера, крики избиваемых, жестокость и произвол охранников. Герой Хоторна говорит, однако, о страшных, бесчеловечных режимах, установленных бывшими борцами за свободу в других африканских странах с последующими межплеменными и гражданскими войнами, голодом, геноцидом, коррупцией, нищетой и болезнями, и с этим трудно не согласиться. Но что все-таки лежит в основе жуткой, бесчеловечной ненависти, позволяющей тюремщику смотреть, как корчится в петле его жертва, лучше узнать Вам самим — Артур Пенн из тех мастеров кинематографа, что не снимают однозначных картин. Предупреждаю, — это не развлечение. Луис Госсетт-младший в роли инспектора, расследюущего жестокость и пытки в тюрьмах. (М. Иванов)

Доп. информация: За звуковую дорожку огромная благодарность Glowamy

Сэмпл: https://www.sendspace.com/file/f4jokc

Качество видео: VHSRip
Формат видео: AVI
Видео: XviD , 640x480 (1.33:1) ,25.000 fps , 1 247 Kbps
Аудио: AC3 , 48 kHz , 192.00 kbps avg , 2/0 (L,R) ch (RUS)
Аудио2: AC3 , 48 kHz , 192.00 kbps avg , 2/0 (L,R) ch (ENG)
Формат субтитров: hardsub (неотключаемые)
General
Complete name Внутри 1996.avi
Format : AVI
Format/Info : Audio Video Interleave
File size : 1.04 GiB
Duration : 1h 30mn
Overall bit rate : 1 645 Kbps
Writing application : VirtualDubMod 1.5.10.3 | http://www.virtualdub-fr.org || (build 2550/release)
Writing library : VirtualDubMod build 2550/release

Video
ID : 0
Format : MPEG-4 Visual
Format profile : Advanced Simple@L5
Format settings, BVOP : 1
Format settings, QPel : No
Format settings, GMC : No warppoints
Format settings, Matrix : Custom
Codec ID : XVID
Codec ID/Hint : XviD
Duration : 1h 30mn
Bit rate : 1 247 Kbps
Width : 640 pixels
Height : 480 pixels
Display aspect ratio : 4:3
Frame rate : 25.000 fps
Color space : YUV
Chroma subsampling : 4:2:0
Bit depth : 8 bits
Scan type : Progressive
Compression mode : Lossy
Bits/(Pixel*Frame) : 0.162
Stream size : 811 MiB (76%)
Writing library : XviD 1.2.1 (UTC 2008-12-04)

Audio #1
ID : 1
Format : AC-3
Format/Info : Audio Coding 3
Mode extension : CM (complete main)
Format settings, Endianness : Big
Codec ID : 2000
Duration : 1h 30mn
Bit rate mode : Constant
Bit rate : 192 Kbps
Channel(s) : 2 channels
Channel positions : Front: L R
Sampling rate : 48.0 KHz
Frame rate : 31.250 fps (1536 spf)
Compression mode : Lossy
Stream size : 125 MiB (12%)
Alignment : Split accross interleaves
Interleave, duration : 40 ms (1.00 video frame)
Interleave, preload duratio : 500 ms

Audio #2
ID : 2
Format : AC-3
Format/Info : Audio Coding 3
Mode extension : CM (complete main)
Format settings, Endianness : Big
Codec ID : 2000
Duration : 1h 30mn
Bit rate mode : Constant
Bit rate : 192 Kbps
Channel(s) : 2 channels
Channel positions : Front: L R
Sampling rate : 48.0 KHz
Frame rate : 31.250 fps (1536 spf)
Compression mode : Lossy
Stream size : 125 MiB (12%)
Alignment : Aligned on interleaves
Interleave, duration : 40 ms (1.00 video frame)
Interleave, preload duratio : 512 ms


_________________
Проголосуй за трекер Открытый торрент трекер - RUS-MEDIA.ORG

Проголосуй Открытый торрент трекер - RUS-MEDIA.ORG



реклама партнёра


Вернуться к началу
 Профиль Отправить личное сообщение  
 
   Похожие торренты   Автор   Торрент   Размер 
В этой теме нет новых непрочитанных сообщений. На седьмой авеню / On Seventh Avenue [Драма, криминал, 1996] VHSRip, Avo

salma3

1 | 0

1.18 ГБ

В этой теме нет новых непрочитанных сообщений. Не пойман - не вор / Inside Man [триллер, драма, криминал, 2006] BDRip, Dub

salma3

341 | 85

2.18 ГБ

В этой теме нет новых непрочитанных сообщений. Убийца внутри меня / The Killer Inside Me [Триллер, драма, вестерн, криминал, 2010] ВDRip 1080р, Dub+Sub

salma3

29 | 7

9.01 ГБ

В этой теме нет новых непрочитанных сообщений. Наши старые записи 2 [1996 г., Amateur, VHSRip 576p]

friizze

19 | 2

688.04 МБ

В этой теме нет новых непрочитанных сообщений. Наши старые записи [1996 г., Amateur, VHSRip 576p]

friizze

17 | 2

714.22 МБ

В этой теме нет новых непрочитанных сообщений. Наши старые записи 6 [1996 г., Amateur, VHSRip 576p]

friizze

12 | 2

758.93 МБ

В этой теме нет новых непрочитанных сообщений. Сексуальная одержимость / Evil Obsession [Триллер, 1996] VHSRip, Avo

salma3

18 | 4

1.37 ГБ


Начать новую тему Ответить на тему  [ 1 сообщение ] 




Для Мосгорсуда, Роскомнадзора и рекламодателей:: mosgorsud-torrent[собачка]yandex.ru