Торрент файл
скачать торрент магнет ссылка Добавлен: 06 мар 2016, 13:46
Размер: 1.36 ГБ
Сидеров: 2
Личеров: 0
Статус: (salma3)
Автор

СообщениеДобавлено: 06 мар 2016, 13:46 

В сети
Супермодератор
Аватара пользователя
Дата регистрации:
15 фев 2012, 16:44
Возраст: 28
Спасибо: 6563 / 2129
Сообщения: 43563
Страна: Италия, Германия
Жанр: история, приключения, фэнтези
Год выпуска: 1997
Продолжительность: 01:41:00

Перевод: Профессиональный (многоголосый закадровый) Интер
Cубтитры: нет
Режиссер: Стефано Реали / Stefano Reali

В ролях: Рауль Бова, Мария Грация Кучинотта, Даниэль Секкальди, Йоахим Фуксбергер, Билли Ди Уильямс, Аня Крузе, Luise Deschauer, Вильфрид Баснер, Рита дель Пиано, Джорджо Тирабасси, Риккардо Салерно, Бруно Билотта

Описание: История простого пчеловода Алазара (Рауль Бова) и трех волхвов, идущих встретить рождение Мессии. Всё начинается с того, что пчёлы Алазара необъяснимо улетают, превращаясь в светящийся хвост звезды, указующей место рождения Младенца Христа. Пытаясь отыскать своих любимых пчёл, Алазар встречает трёх мудрых королей – Гаспара, Мельхиора и Валтасара, которые уговорами, а иногда и магией, заставляют его помочь им в поисках. Но Алазару нужно идти домой, где его ждёт беременная жена Изира (Мария Грация Кучинотта). Несмотря на все разногласия, попутчики становятся верными друзьями и после захватывающих приключений они, наконец, находят ясли с Младенцем.
Фильм сказочно красивый, потрясающие пейзажи, великолепная музыка, благородные лица актёров. Можно его назвать историческим с элементами фэнтези. Хотя, кто знает, может что-то подобное и имело место быть...

Доп. информация: Рип от dimmm2v

Дорожка с ТВ рипа из личной коллекции SuperDVD01. Большое спасибо.

Релиз

Сэмпл: https://yadi.sk/i/bvofphuHpvYoy

Качество видео: DVDRip
Формат видео: AVI
Видео: 704x512 (1.38:1), 25 fps, XviD build 47 ~1731 kbps avg, 0.19 bit/pixel
Аудио: 48 kHz, AC3 Dolby Digital, 2/0 (L,R) ch, ~192 kbps
Четвертый король - Il quarto re [by Edich2].avi
Format : AVI
Format/Info : Audio Video Interleave
File size : 1.36 GiB
Duration : 1h 41mn
Overall bit rate : 1 930 Kbps
Movie name : Четвертый король - Il quarto re [by Edich2]
Director : by Edich2
Writing application : Nandub v1.0rc2
Comment : RuTracker.org

Video
ID : 0
Format : MPEG-4 Visual
Format profile : Advanced Simple@L5
Format settings, BVOP : 1
Format settings, QPel : No
Format settings, GMC : No warppoints
Format settings, Matrix : Default (MPEG)
Codec ID : XVID
Codec ID/Hint : XviD
Duration : 1h 41mn
Bit rate : 1 731 Kbps
Width : 704 pixels
Height : 512 pixels
Display aspect ratio : 1.375
Frame rate : 25.000 fps
Color space : YUV
Chroma subsampling : 4:2:0
Bit depth : 8 bits
Scan type : Progressive
Compression mode : Lossy
Bits/(Pixel*Frame) : 0.192
Stream size : 1.22 GiB (90%)
Writing library : XviD 1.2.0.dev47 (UTC 2006-11-01)

Audio
ID : 1
Format : AC-3
Format/Info : Audio Coding 3
Mode extension : CM (complete main)
Format settings, Endianness : Big
Codec ID : 2000
Duration : 1h 39mn
Bit rate mode : Constant
Bit rate : 192 Kbps
Channel(s) : 2 channels
Channel positions : Front: L R
Sampling rate : 48.0 KHz
Frame rate : 31.250 fps (1536 spf)
Compression mode : Lossy
Delay relative to video : 16ms
Stream size : 136 MiB (10%)
Alignment : Split accross interleaves
Interleave, duration : 41 ms (1.02 video frame)
Interleave, preload duratio : 500 ms




_________________
Проголосуй за трекер Открытый торрент трекер - RUS-MEDIA.ORG

Проголосуй Открытый торрент трекер - RUS-MEDIA.ORG



реклама партнёра


Вернуться к началу
 Профиль Отправить личное сообщение  
 
   Похожие торренты   Автор   Торрент   Размер 
В этой теме нет новых непрочитанных сообщений. Четвертый протокол / The Fourth Protocol [триллер, 1987] DVDRip, Mvo

salma3

108 | 4

2.18 ГБ

В этой теме нет новых непрочитанных сообщений. Король обезьян: Начало / The Monkey King the Legend Begins [фэнтези, боевик, приключения, 2016] WEBRip, Avo

salma3

774 | 23

1.46 ГБ

В этой теме нет новых непрочитанных сообщений. Король приключений / Adventure King [Боевик, приключения, 1996] DVDRip, Mvo

salma3

45 | 4

746.59 МБ

В этой теме нет новых непрочитанных сообщений. Четвёртый вид / The Fourth Kind [ужасы, фантастика, триллер, 2009] BDRip-AVC, Dub

salma3

180 | 18

746.04 МБ

В этой теме нет новых непрочитанных сообщений. Девушка-король / The Girl King Драма, мелодрама, биография, история[, 2015] BDRip 1080p, Avo

salma3

27 | 5

10.77 ГБ

В этой теме нет новых непрочитанных сообщений. Девушка-король / The Girl King [Драма, мелодрама, биография, история, 2015] BDRip 720p, Avo

salma3

49 | 32

5.6 ГБ

В этой теме нет новых непрочитанных сообщений. Гэльский король / The Gaelic King [фэнтези, боевик, 2017] WEBDLRip, Dvo

salma3

428 | 91

1.37 ГБ


Начать новую тему Ответить на тему  [ 1 сообщение ] 




Для Мосгорсуда, Роскомнадзора и рекламодателей:: mosgorsud-torrent[собачка]yandex.ru