Торрент файл
скачать торрент магнет ссылка Добавлен: 05 мар 2016, 16:33
Размер: 1.46 ГБ
Сидеров: 51
Личеров: 3
Статус: (salma3)
Автор

СообщениеДобавлено: 05 мар 2016, 16:33 

Не в сети
Супермодератор
Аватара пользователя
Дата регистрации:
15 фев 2012, 16:44
Возраст: 27
Спасибо: 5135 / 2089
Сообщения: 17405
Перевод: Любительский (двухголосый) [DeadSno & den904]
Cубтитры: Aнглийские
Формат: BDRip-AVC, MKV, H.264, AAC
Страна: США
Режиссер: Стивен Р. Монро
Жанр: ужасы
Продолжительность: 01:35:40
Год выпуска: 2015

В ролях: Сара Линд, Девон Сава, Джина Холден, Питер МакНил, Дайана Лайтольд, Джулиа Аркос, Том МакЛаре

Описание: Молли Хартли выросла, но демон по-прежнему живёт внутри неё. Девушка узнаёт, что по тайному договору её душа принадлежит дьяволу. Спустя шесть лет после окончания школы её обвиняют в убийстве и отправляют в психиатрическую больницу, где она своей силой причиняет вред пациентам и персоналу. Её единственная надежда — обряд экзорцизма, который может провести лишённый сана священник, желающий спасти Молли.



Видео: 1152x640 (16:9), 23.976 fps, AVC (х264), , ~ 2049 Kbps, 0.116 bit/pixel
Аудио: AAC LC, 48.0 KHz, 2 ch, ~ 132 kbps avg
General
Unique ID : 251173016010435795157827105800414732097 (0xBCF629CC6EEFB55DA342BD3F87969F41)
Complete name : C:\Users\Юрик\Desktop\The Exorcism of Molly Hartley 2015 BDRip-AVC 1.45GB (1).mkv
Format : Matroska
Format version : Version 4 / Version 2
File size : 1.46 GiB
Duration : 1h 35mn
Overall bit rate : 2 179 Kbps
Encoded date : UTC 2016-03-05 11:22:02
Writing application : mkvmerge v7.4.0 ('Circles') 64bit built on Dec 12 2014 12:19:56
Writing library : libebml v1.3.0 + libmatroska v1.4.1

Video
ID : 1
Format : AVC
Format/Info : Advanced Video Codec
Format profile :
Format settings, CABAC : Yes
Format settings, ReFrames : 11 frames
Codec ID : V_MPEG4/ISO/AVC
Duration : 1h 35mn
Bit rate : 2 049 Kbps
Width : 1 152 pixels
Height : 640 pixels
Display aspect ratio : 16:9
Frame rate mode : Constant
Frame rate : 23.976 (24000/1001) fps
Color space : YUV
Chroma subsampling : 4:2:0
Bit depth : 8 bits
Scan type : Progressive
Bits/(Pixel*Frame) : 0.116
Stream size : 1.37 GiB (94%)
Writing library : x264 core 148 r2638 7599210
Encoding settings : cabac=1 / ref=11 / deblock=1:0:0 / analyse=0x3:0x133 / me=umh / subme=10 / psy=1 / psy_rd=1.00:0.00 / mixed_ref=1 / me_range=24 / chroma_me=1 / trellis=2 / 8x8dct=1 / cqm=0 / deadzone=21,11 / fast_pskip=1 / chroma_qp_offset=-2 / threads=6 / lookahead_threads=1 / sliced_threads=0 / nr=0 / decimate=1 / interlaced=0 / bluray_compat=0 / constrained_intra=0 / bframes=8 / b_pyramid=2 / b_adapt=2 / b_bias=0 / direct=3 / weightb=1 / open_gop=0 / weightp=2 / keyint=240 / keyint_min=23 / scenecut=40 / intra_refresh=0 / rc_lookahead=60 / rc=2pass / mbtree=1 / bitrate=2049 / ratetol=1.0 / qcomp=0.60 / qpmin=0 / qpmax=69 / qpstep=4 / cplxblur=20.0 / qblur=0.5 / vbv_maxrate=62500 / vbv_bufsize=78125 / nal_hrd=none / filler=0 / ip_ratio=1.40 / aq=1:1.00
Default : Yes
Forced : No

Audio
ID : 2
Format : AAC
Format/Info : Advanced Audio Codec
Format profile : LC
Codec ID : A_AAC
Duration : 1h 35mn
Bit rate : 132 Kbps
Channel(s) : 2 channels
Channel positions : Front: L R
Sampling rate : 48.0 KHz
Frame rate : 46.875 fps (1024 spf)
Compression mode : Lossy
Delay relative to video : 9ms
Stream size : 89.6 MiB (6%)
Title : Russian
Language : Russian
Default : Yes
Forced : No

Text
ID : 3
Format : UTF-8
Codec ID : S_TEXT/UTF8
Codec ID/Info : UTF-8 Plain Text
Duration : 1h 30mn
Bit rate : 41 bps
Count of elements : 943
Stream size : 27.5 KiB (0%)
Title : English
Language : English
Default : Yes
Forced : No




_________________



реклама партнёра


Вернуться к началу
 Профиль Отправить личное сообщение  
 
   Похожие торренты   Автор   Торрент   Размер 
В этой теме нет новых непрочитанных сообщений. Экзорцизм Молли Хартли / The Exorcism of Molly Hartley (Стивен Р. Монро) [Ужасы, 2015] BDRip 720p, dvo

Dracon

1765 | 96

2.23 ГБ

В этой теме нет новых непрочитанных сообщений. Экзорцизм Молли Хартли / The Exorcism of Molly Hartley (Стивен Р. Монро) [Ужасы, 2015] HDRip, dvo

Dracon

5707 | 207

1.46 ГБ

В этой теме нет новых непрочитанных сообщений. Призраки Молли Хартли / The Haunting of Molly Hartley [Ужасы, триллер, драма, 2008] BDRemux 1080р, Dub

salma3

14 | 4

13.55 ГБ

В этой теме нет новых непрочитанных сообщений. Экзорцизм Анны Экланд / The Exorcism of Anna Ecklund [ужасы. 2016] WEB-DLRip, Dvo

salma3

375 | 26

1.4 ГБ

В этой теме нет новых непрочитанных сообщений. Майк и Молли / Mike and Molly [S05] (Марк Робертс) [Комедия, 2014–2015] HDTVRip [Кураж-Бамбей]

Dracon

155 | 75

5.01 ГБ

В этой теме нет новых непрочитанных сообщений. Майк и Молли / Mike and Molly [S04] (Джеймс Берроуз) [Комедия, 2013] WEB-DLRip [Кураж-Бамбей]

Dracon

77 | 10

5.02 ГБ

В этой теме нет новых непрочитанных сообщений. Экзорцизм: пещера шамана / Toema: munyeokul [ужасы, триллер, 2015] WEBDLRip, Dvo

salma3

7 | 4

1.42 ГБ


Начать новую тему Ответить на тему  [ 1 сообщение ] 




Для Мосгорсуда, Роскомнадзора и рекламодателей:: mosgorsud-torrent[собачка]yandex.ru