Торрент файл
скачать торрент магнет ссылка Добавлен: 05 мар 2016, 14:05
Размер: 1.45 ГБ
Сидеров: 2
Личеров: 1
Статус: (salma3)
Автор

СообщениеДобавлено: 05 мар 2016, 14:05 

Не в сети
Супермодератор
Аватара пользователя
Дата регистрации:
15 фев 2012, 16:44
Возраст: 28
Спасибо: 6574 / 2142
Сообщения: 43811
Страна: Германия
Жанр: фантастика, боевик
Год выпуска: 2001
Продолжительность: 01:32:09

Перевод: Профессиональный (многоголосый закадровый) Новый канал
Cубтитры: нет
Режиссер: Себастьян Вигг / Sebastian Vigg, Джо Копполетта / Joe Coppoletta

В ролях: Маркус Нафкен, Симон Лихт, Андреа Людке, Томас Анценхофер, Anne Cathrin Buhtz, Ханс Петер Халльвакс, Кирк Кирхбергер, Флорентина Ламе, Райнер Лаупихлер, Михаэль Лотт

Описание: Маркус Кнюфкен играет Человека-Миллениум, который одарён особыми бионическими способностями. Он выглядит, как - нормальный человек, но его прямые обязанности это - выполнение очень сложных заданий для European Task Force (ETF). До службы в ETF (в старой жизни), его звали - Николас Байер Наркодиллер. В одной переделке, его так переколбасило, что все решили, что Николас Байер откинулся на тот свет. Но в последний момент, еле живого его передали в особо-секретный проект, в последствии получивший название - „Человек-Миллениум“. Андреа Людке играет в этом фильме научную сотрудницу, доктора - Катрин Штерн. Она и Райнер Гренковойтц - являются немногими теми, кто организовывает тыл и прикрывает „задницу“ новоиспечённого Человека-Тысячелетия.

Доп. информация: За предоставленный фильм (из личной коллекции) спасибо SuperDVD01

Релиз

Сэмпл: https://yadi.sk/i/-MXnT_AKpszQY

Качество видео: TVRip
Формат видео: AVI
Видео: 512x384 (1.33:1), 25 fps, DivX MPEG-4 Low-Motion ~2049 kbps avg, 0.42 bit/pixel
Аудио: 48 kHz, AC3 Dolby Digital, 2/0 (L,R) ch, ~192 kbps
Киберкоп - Millennium Mann - pilot [by Edich2] fix.avi
Format : AVI
Format/Info : Audio Video Interleave
File size : 1.45 GiB
Duration : 1h 32mn
Overall bit rate : 2 251 Kbps
Movie name : Киберкоп - Millennium Mann - pilot [by Edich2]
Director : by SuperDVD01
Writing application : VirtualDubMod 1.5.10.2 (build 2540/release)
Writing library : VirtualDubMod build 2540/release
Copyright : Edich2
Comment : RuTracker.org

Video
ID : 0
Format : MPEG-4 Visual
Codec ID : DIV3
Codec ID/Hint : DivX 3 Low
Duration : 1h 32mn
Bit rate : 2 049 Kbps
Width : 512 pixels
Height : 384 pixels
Display aspect ratio : 4:3
Frame rate : 25.000 fps
Color space : YUV
Chroma subsampling : 4:2:0
Bit depth : 8 bits
Compression mode : Lossy
Bits/(Pixel*Frame) : 0.417
Stream size : 1.32 GiB (91%)

Audio
ID : 1
Format : AC-3
Format/Info : Audio Coding 3
Mode extension : CM (complete main)
Format settings, Endianness : Big
Codec ID : 2000
Duration : 1h 32mn
Bit rate mode : Constant
Bit rate : 192 Kbps
Channel(s) : 2 channels
Channel positions : Front: L R
Sampling rate : 48.0 KHz
Frame rate : 31.250 fps (1536 spf)
Compression mode : Lossy
Stream size : 127 MiB (9%)
Alignment : Split accross interleaves
Interleave, duration : 40 ms (1.00 video frame)
Interleave, preload duratio : 500 ms






_________________
Проголосуй за трекер Открытый торрент трекер - RUS-MEDIA.ORG

Проголосуй Открытый торрент трекер - RUS-MEDIA.ORG



реклама партнёра


Вернуться к началу
 Профиль Отправить личное сообщение  
 
   Похожие торренты   Автор   Торрент   Размер 
В этой теме нет новых непрочитанных сообщений. Человек в Высоком замке / The Man in the High Castle [Pilot] [01х01] (Дэвид Семел) [2015, Фантастика, Триллер, Драма, WEB-DLRip 720р]

Nickolas3435

4 | 2

2.52 ГБ

В этой теме нет новых непрочитанных сообщений. Миллениум / Millennium [фантастика, триллер, драма, детектив, 1989] BDRip-AVC, Dub

salma3

0 | 94

1.71 ГБ

В этой теме нет новых непрочитанных сообщений. Тысячелетие / Миллениум / Прерванный полет / Millennium [фантастика, триллер, драма, детектив, 1989] BDRemux 1080p, Dub+Dvo+Sub

salma3

6 | 5

22.11 ГБ

В этой теме нет новых непрочитанных сообщений. Человек из будущего / The Tomorrow Man [фантастика, боевик, 2002] DVDRip, Mvo

salma3

19 | 4

1.45 ГБ

В этой теме нет новых непрочитанных сообщений. Голографический человек / Hologram Man [фантастика, боевик, 1995] BDRip 1080р, Mvo

salma3

64 | 42

6.83 ГБ

В этой теме нет новых непрочитанных сообщений. Цифровой человек / Digital Man [Фантастика, боевик, триллер, 1995] DVDRip, Dvo

salma3

65 | 0

747.2 МБ

В этой теме нет новых непрочитанных сообщений. Голографический человек / Hologram Man [Фантастика, боевик, триллер, 1995] HDRip, Dvo [НТВ]

salma3

55 | 3

1.37 ГБ


Начать новую тему Ответить на тему  [ 1 сообщение ] 




Для Мосгорсуда, Роскомнадзора и рекламодателей:: mosgorsud-torrent[собачка]yandex.ru