Торрент файл
скачать торрент магнет ссылка Добавлен: 05 мар 2016, 14:00
Размер: 1.46 ГБ
Сидеров: 23
Личеров: 8
Статус: (salma3)
Автор

СообщениеДобавлено: 05 мар 2016, 14:00 

Не в сети
Супермодератор
Аватара пользователя
Дата регистрации:
15 фев 2012, 16:44
Возраст: 27
Спасибо: 5143 / 2090
Сообщения: 17514
Бабник / Spread

Год выпуска: 2009
Жанр: мелодрама, драма
Режиссер: Дэвид Маккензи / David Mackenzie

В ролях: Эштон Катчер, Энн Хеч, Маргарита Левиева, Себастиан Стэн, Соня Роквэлл, Мария Кончита Алонсо, Харт Бокнер, Томас Кийас, Лэндон Эшворт, Шэйн Бролли

Описание:
Никки молод, неотразим и пользуется безотказным вниманием представительниц противоположного пола. Его роман с Самантой основан исключительно на взаимном интересе. Никки интересует ее кредитная карточка и шикарный особняк, а успешную, но одинокую Саманту — безудержный дикий секс. Но когда Никки встречает Хизер, у циничного жиголо что-то переключается в голове и в сердце…

Страна: США
Продолжительность: 01:37:04
Перевод: Профессиональный (дублированный)

Файл
Качество: BDRip
Формат файла: AVI
Видео кодек: XviD
Аудио кодек: AC3
Видео: 720x304 (2.37:1), 23.976 fps, XviD build 73 ~1686 kbps avg, 0.32 bit/pixel
Аудио: 48 kHz, AC3 Dolby Digital, 3/2 (L,C,R,l,r) + LFE ch, ~448 kbps




Общее
Полное имя : H:\Spread.2009.bdrip_[1.46]_[teko].avi
Формат : AVI
Формат/Информация : Audio Video Interleave
Размер файла : 1,46 Гбайт
Продолжительность : 1 ч. 37 м.
Общий поток : 2144 Кбит/сек
Программа кодирования : VirtualDubMod 1.5.10.3 | http://www.virtualdub-fr.org || (build 2550/release)
Библиотека кодирования : VirtualDubMod build 2550/release

Видео
Идентификатор : 0
Формат : MPEG-4 Visual
Профиль формата : Advanced Simple@L5
Параметр BVOP формата : 1
Параметр QPel формата : Нет
Параметр GMC формата : Без точки перехода
Параметр матрицы формата : Выборочная
Идентификатор кодека : XVID
Идентификатор кодека/Подсказка : XviD
Продолжительность : 1 ч. 37 м.
Битрейт : 1687 Кбит/сек
Ширина : 720 пикселей
Высота : 304 пикселя
Соотношение сторон : 2,35:1
Частота кадров : 23,976 кадра/сек
Цветовое пространство : YUV
Субдискретизация насыщенности : 4:2:0
Битовая глубина : 8 бит
Тип развёртки : Прогрессивная
Метод сжатия : С потерями
Бит/(Пиксели*Кадры) : 0.321
Размер потока : 1,15 Гбайт (79%)
Библиотека кодирования : XviD 73

Аудио
Идентификатор : 1
Формат : AC-3
Формат/Информация : Audio Coding 3
Расширение режима : CM (complete main)
Параметр Endianness формата : Big
Идентификатор кодека : 2000
Продолжительность : 1 ч. 37 м.
Вид битрейта : Постоянный
Битрейт : 448 Кбит/сек
Каналы : 6 каналов
Расположение каналов : Front: L C R, Side: L R, LFE
Частота : 48,0 КГц
Битовая глубина : 16 бит
Метод сжатия : С потерями
Размер потока : 312 Мбайт (21%)
Выравнивание : Разделение по промежуткам
Продолжительность промежутка : 42 мс. (1,00 видеокадр)
Время предзагрузки промежутка : 500 мс.

Релиз группы:


_________________



реклама партнёра


Вернуться к началу
 Профиль Отправить личное сообщение  
 
   Похожие торренты   Автор   Торрент   Размер 
В этой теме нет новых непрочитанных сообщений. Бабник / Spread [драма, мелодрама, комедия, 2009] BDRip 720p, Dub+Sub

salma3

209 | 31

6.09 ГБ

В этой теме нет новых непрочитанных сообщений. Бабник / Spread [мелодрама, комедия, 2009] BDRemux 1080p, Dub

salma3

4 | 2

14.58 ГБ

В этой теме нет новых непрочитанных сообщений. Spread Eagle - Spread eagle [1990, Hard Rock, MP3]

PriZraK

0 | 1

104.68 МБ

В этой теме нет новых непрочитанных сообщений. Spread The Plague - Pangaea (EP) [Февраль 2012, Deathcore, MP3]

PriZraK

0 | 1

69.89 МБ

В этой теме нет новых непрочитанных сообщений. Tattooed Lies - Spread Your Wings [2012, Hard Rock, MP3]

PriZraK

0 | 2

87.22 МБ

В этой теме нет новых непрочитанных сообщений. Dream Master - Spread Your Wings [2011, Heavy, Power Metal, MP3]

PriZraK

0 | 2

119.54 МБ

В этой теме нет новых непрочитанных сообщений. Предложение / The Proposal [драма, мелодрама, комедия, 2009] BDRip, Dub

salma3

404 | 42

1.74 ГБ


Начать новую тему Ответить на тему  [ 1 сообщение ] 




Для Мосгорсуда, Роскомнадзора и рекламодателей:: mosgorsud-torrent[собачка]yandex.ru