Торрент файл
скачать торрент магнет ссылка Добавлен: 05 мар 2016, 13:53
Размер: 1.46 ГБ
Сидеров: 9
Личеров: 3
Статус: (salma3)
Автор

СообщениеДобавлено: 05 мар 2016, 13:53 

В сети
Супермодератор
Аватара пользователя
Дата регистрации:
15 фев 2012, 16:44
Возраст: 27
Спасибо: 5142 / 2090
Сообщения: 17471
Страна: Германия, Франция
Жанр
: драма, мелодрама, исторический
Год выпуска: 2010
Продолжительность: 02:19:44

Перевод: Профессиональный (дублированный)
Cубтитры: нет[/font]

Режиссер: Бертран Тавернье / Bertrand Tavernier

В ролях: Мелани Тьерри, Ламбер Вильсон, Грегуар Лепренс-Ренге, Гаспар Ульель, Рафаэль Персонас, Анатоль де Бодина, Эрик Рюллья, Сэмюэл Тейс, Мишель Вюйермоз, Жюдит Шемла

Описание: 1562 г., Францией управляет Карл IX, в стране бушуют религиозные войны… Мари де Мезьер, одна из самых богатых наследниц королевства, любит молодого герцога де Гиза, позже получившего прозвище «Меченый», и он, как ей кажется, разделяет ее чувство. Однако отец девушки, маркиз де Мезьер, стремится возвысить свою семью, и отдает дочь замуж за принца Монпансье, которого она даже не знает. Карл IX вызывает принца присоединиться к нему в борьбе с протестантами...

Качество видео: BDRip
Формат видео
: AVI

Видео: 720x304 (2.37:1), 23.976 fps, XviD build 73 ~1103 kbps avg, 0.21 bit/pixel
Аудио: 48 kHz, AC3 Dolby Digital, 3/2 (L,C,R,l,r) + LFE ch, ~384 kbps

Общее
Полное имя : H:\La.Princesse.de.Montpensier.2011.bdrip_[1.46]_[teko].avi
Формат : AVI
Формат/Информация : Audio Video Interleave
Размер файла : 1,46 Гбайт
Продолжительность : 2 ч. 19 м.
Общий поток : 1497 Кбит/сек
Программа кодирования : VirtualDubMod 1.5.10.3 | http://www.virtualdub-fr.org || (build 2550/release)
Библиотека кодирования : VirtualDubMod build 2550/release

Видео
Идентификатор : 0
Формат : MPEG-4 Visual
Профиль формата : Advanced Simple@L5
Параметр BVOP формата : 2
Параметр QPel формата : Нет
Параметр GMC формата : Без точки перехода
Параметр матрицы формата : Выборочная
Идентификатор кодека : XVID
Идентификатор кодека/Подсказка : XviD
Продолжительность : 2 ч. 19 м.
Битрейт : 1104 Кбит/сек
Ширина : 720 пикселей
Высота : 304 пикселя
Соотношение сторон : 2,35:1
Частота кадров : 23,976 кадра/сек
Цветовое пространство : YUV
Субдискретизация насыщенности : 4:2:0
Битовая глубина : 8 бит
Тип развёртки : Прогрессивная
Метод сжатия : С потерями
Бит/(Пиксели*Кадры) : 0.210
Размер потока : 1,08 Гбайт (74%)
Библиотека кодирования : XviD 73

Аудио
Идентификатор : 1
Формат : AC-3
Формат/Информация : Audio Coding 3
Расширение режима : CM (complete main)
Параметр Endianness формата : Big
Идентификатор кодека : 2000
Продолжительность : 2 ч. 19 м.
Вид битрейта : Постоянный
Битрейт : 384 Кбит/сек
Каналы : 6 каналов
Расположение каналов : Front: L C R, Side: L R, LFE
Частота : 48,0 КГц
Битовая глубина : 16 бит
Метод сжатия : С потерями
Размер потока : 384 Мбайт (26%)
Выравнивание : Разделение по промежуткам
Продолжительность промежутка : 42 мс. (1,00 видеокадр)
Время предзагрузки промежутка : 500 мс.
Релиз группы:





_________________



реклама партнёра


Вернуться к началу
 Профиль Отправить личное сообщение  
 
   Похожие торренты   Автор   Торрент   Размер 
В этой теме нет новых непрочитанных сообщений. Принцесса де Монпансье / La princesse de Montpensier [Драма, мелодрама, история, экранизация, 2010] BDRip 720p, Dub+Sub

salma3

32 | 1

8.58 ГБ

В этой теме нет новых непрочитанных сообщений. Принцесса Лебедь: Пират или принцесса? / The Swan Princess: Princess Tomorrow, Pirate Today! [Мультфильм, семейный, 2016] WEB-DLRip, Mvo [iTunes]

salma3

141 | 98

1.37 ГБ

В этой теме нет новых непрочитанных сообщений. Принцесса Лебедь: Пират или принцесса? / The Swan Princess: Princess Tomorrow, Pirate Today! [Мультфильм, семейный, 2016] WEB-DL 720p, Mvo [iTunes]

salma3

590 | 117

2.51 ГБ

В этой теме нет новых непрочитанных сообщений. Повторный Принцесса Ток-хе / Принцесса Док-хе / The Last Princess / Deokhyeongjoo ( драма, биография, история, 2016) HDRip | L2 Данный торрент является блокированным, причина: повторный торрент

marya111

0 | 0

1.46 ГБ

В этой теме нет новых непрочитанных сообщений. Принцесса Карабу / Princess Caraboo [Драма, мелодрама, комедия, детектив, 1994] DVDRip, Mvo

salma3

23 | 5

1.45 ГБ

В этой теме нет новых непрочитанных сообщений. Моя могучая принцесса / My mighty princess [боевик, мелодрама, комедия, 2008] DVDRip, Avo

salma3

63 | 3

1.45 ГБ

В этой теме нет новых непрочитанных сообщений. Барби: Жемчужная Принцесса / Barbie: The Pearl Princess [мультфильм, 2014] BDRip, Dub [Лицензия]

salma3

862 | 40

1.37 ГБ


Начать новую тему Ответить на тему  [ 1 сообщение ] 




Для Мосгорсуда, Роскомнадзора и рекламодателей:: mosgorsud-torrent[собачка]yandex.ru