Торрент файл
скачать торрент магнет ссылка Добавлен: 05 мар 2016, 13:49
Размер: 1.45 ГБ
Сидеров: 6
Личеров: 2
Статус: (salma3)
Автор

СообщениеДобавлено: 05 мар 2016, 13:49 

В сети
Супермодератор
Аватара пользователя
Дата регистрации:
15 фев 2012, 16:44
Возраст: 27
Спасибо: 5121 / 2089
Сообщения: 17281
Страна: Франция
Жанр: фантастика, боевик, триллер, драма
Год выпуска: 2009
Продолжительность: 01:35:23

Перевод: Профессиональный (многоголосый закадровый)
Cубтитры: нет
Оригинальная аудиодорожка: нет

Режиссер: Рене Манзор / René Manzor

В ролях: Кристиана Реали, Флоран Паньи, Gauthier Battoue, Tom Méziane, Жан-Пьер Мартен, Ян Сандберг, Антуан Кэхэн, Федор Аткин, Сюзанн Обер, Надя Барантен
...

Описание: На расстоянии 150 миллиардов километров от Земли геомагнитные бури извергаются из поверхности Солнца, когда они достигают земли, влияние на живущих невелико, но целая энергосеть может быть выведена из строя. Сегодня на Земле обычный день, но через 2 часа полное отключение электричества лишает энергии 200 миллионов европейцев, все больницы, аэропорты, экстренные службы и средства связи прекращают работу. Европа погружается в апокалиптические времена. В центре этого беспримерного бедствия борются за выживание два потерявшихся ребенка, сбежавший заключенный, женщина на последних днях беременности и несколько других.

Сэмпл: http://multi-up.com/1089704

Качество видео: SATRip
Формат видео: AVI

Видео: MPEG4, XviD, 720x400 (16:9), 25.000 fps, 1 978 Kbps (0.275 bit/pixel)
Аудио: AC-3, 48.0 KHz, 2 ch, 192 Kbps, CBR
Общее
Полное имя : N:\Полное затмение.avi
Формат : AVI
Формат/Информация : Audio Video Interleave
Размер файла : 1,45 Гбайт
Продолжительность : 1 ч. 35 м.
Общий поток : 2180 Кбит/сек
Название фильма : Полное затмение / Blackout / Total Blackout (2009)
Программа кодирования : VirtualDubMod 1.5.10.2 (build 2540/release)
Библиотека кодирования : VirtualDubMod build 2540/release
Авторское право : miha2154

Видео
Идентификатор : 0
Формат : MPEG-4 Visual
Профиль формата : Advanced Simple@L5
Параметр BVOP формата : 1
Параметр QPel формата : Нет
Параметр GMC формата : Без точки перехода
Параметр матрицы формата : Выборочная
Идентификатор кодека : XVID
Идентификатор кодека/Подсказка : XviD
Продолжительность : 1 ч. 35 м.
Битрейт : 1978 Кбит/сек
Ширина : 720 пикселей
Высота : 400 пикселей
Соотношение сторон : 16:9
Частота кадров : 25,000 кадров/сек
Цветовое пространство : YUV
Субдискретизация насыщенности : 4:2:0
Битовая глубина : 8 бит
Тип развёртки : Прогрессивная
Метод сжатия : С потерями
Бит/(Пиксели*Кадры) : 0.275
Размер потока : 1,32 Гбайт (91%)
Библиотека кодирования : XviD 65

Аудио
Идентификатор : 1
Формат : AC-3
Формат/Информация : Audio Coding 3
Расширение режима : CM (complete main)
Параметр Endianness формата : Big
Идентификатор кодека : 2000
Продолжительность : 1 ч. 35 м.
Вид битрейта : Постоянный
Битрейт : 192 Кбит/сек
Каналы : 2 канала
Расположение каналов : Front: L R
Частота : 48,0 КГц
Частота кадров : 31,250 кадров/сек (1536 spf)
Метод сжатия : С потерями
Размер потока : 131 Мбайт (9%)
Выравнивание : Разделение по промежуткам
Продолжительность промежутка : 40 мс. (1,00 видеокадр)
Время предзагрузки промежутка : 500 мс.
Заголовок : Профессиональный (многоголосый закадровый)




_________________



реклама партнёра


Вернуться к началу
 Профиль Отправить личное сообщение  
 
   Похожие торренты   Автор   Торрент   Размер 
В этой теме нет новых непрочитанных сообщений. Affiance - Blackout [2014, Melodic Metalcore, MP3]

PriZraK

3 | 3

88.22 МБ

В этой теме нет новых непрочитанных сообщений. Dynamite - Blackout Station [2014, Hard Rock, MP3]

PriZraK

0 | 2

85.6 МБ

В этой теме нет новых непрочитанных сообщений. Помогите вспомнить / The Blackout [комедия, 2013] WEB-DLRip, Mvo

salma3

243 | 10

1.46 ГБ

В этой теме нет новых непрочитанных сообщений. The Blackout - Hope [2011, Post-hardcore, alternative rock, MP3]

PriZraK

0 | 1

93.18 МБ

В этой теме нет новых непрочитанных сообщений. Dominion - Blackout (Japanese Edition) [1997, Gothic Metal, Doom Metal, MP3]

PriZraK

2 | 3

124.57 МБ

В этой теме нет новых непрочитанных сообщений. The Blackout Argument - Detention [2011, Melodic Metalcore, Melodic Hardcore, MP3]

PriZraK

0 | 1

81.01 МБ

В этой теме нет новых непрочитанных сообщений. Хэйло: Затмение / Halo: Nightfall [01-05x05] [фантастика, боевик, триллер, приключения, 2014] WEBRip [NewStudio]

Dracon

73 | 8

975.72 МБ


Начать новую тему Ответить на тему  [ 1 сообщение ] 




Для Мосгорсуда, Роскомнадзора и рекламодателей:: mosgorsud-torrent[собачка]yandex.ru