Торрент файл
скачать торрент магнет ссылка Добавлен: 05 мар 2016, 13:47
Размер: 2.9 ГБ
Сидеров: 24
Личеров: 10
Статус: (salma3)
Автор

СообщениеДобавлено: 05 мар 2016, 13:47 

Не в сети
Супермодератор
Аватара пользователя
Дата регистрации:
15 фев 2012, 16:44
Возраст: 27
Спасибо: 5121 / 2089
Сообщения: 17282
Погребенный заживо / Buried

««170 000 sq miles of desert. 90 minutes of oxygen. No way out»
Страна: Испания, США, Франция
Жанр: драма, триллер, детектив
Год выпуска: 2010
Продолжительность: 01:35:28

Перевод 1: Профессиональный (полное дублирование)
Перевод 2: Авторский (одноголосый закадровый, С. Визгунов)
Оригинальная аудиодорожка: английский
Cубтитры: русские, английские
Навигация по главам: есть

Режиссёр: Родриго Кортес / Rodrigo Cortés

В ролях: Райан Рейнольдс, Хосе Луис Гарсия Перез, Роберт Патерсон, Стивен Тоболовски, Саманта Мэтис, Ивана Миньо, Уорнер Лафлин, Эрик Палладино, Кали Роча, Крис Мартин, Кейд Дандиш, Мэри Бердсонг, Кирк Бейли, Энн Локхарт, Роберт Клотуорти

Описание: Герой фильма Пол, находящийся в Ираке по контракту, во время засады теряет сознание и спустя время приходит в себя в странном тесном темном месте. Нетрудно догадаться, что воспользовавшись зажигалкой, Пол обнаруживает себя похороненным в гробу. Ему предстоит пережить много страшных, психологически тяжелых, физически невозможных мгновений борьбы за собственную жизнь в попытках выбраться из неожиданной ловушки…



Качество видео: BDRip-AVC (исходник - Buried.2010.BD.Remux.1080p.h264.Rus.Eng)
Формат видео: MKV

Видео: x264, 1152х490 (2,35:1), 23,976 fps, ~3010 kbps, 0.222 bit/pixel
Аудио 1: 48 kHz, AC3 Dolby Digital, 3/2 (L,C,R,l,r) + LFE ch, ~448 kbps [русский] - дубляж
Аудио 2: 48 kHz, AC3 Dolby Digital, 3/2 (L,C,R,l,r) + LFE ch, ~448 kbps [русский] - Сергей Визгунов
Аудио 3: 48 kHz, AC3 Dolby Digital, 3/2 (L,C,R,l,r) + LFE ch, ~448 kbps [английский]
Формат субтитров: softsub (SRT)
Format : Matroska
Format version : Version 4 / Version 2
File size : 2.90 GiB
Duration : 1h 35mn
Overall bit rate : 4 355 Kbps
Movie name : Погребённый заживо / Buried (2010) :: AFM ::
Encoded date : UTC 2016-02-20 12:45:35
Writing application : mkvmerge v8.3.0 ('Over the Horizon') 32bit
Writing library : libebml v1.3.1 + libmatroska v1.4.2

Video
ID : 1
Format : AVC
Format/Info : Advanced Video Codec
Format profile : High@L4.1
Format settings, CABAC : Yes
Format settings, ReFrames : 10 frames
Codec ID : V_MPEG4/ISO/AVC
Duration : 1h 35mn
Bit rate : 3 010 Kbps
Width : 1 152 pixels
Height : 490 pixels
Display aspect ratio : 2.35:1
Frame rate mode : Constant
Frame rate : 23.976 fps
Color space : YUV
Chroma subsampling : 4:2:0
Bit depth : 8 bits
Scan type : Progressive
Bits/(Pixel*Frame) : 0.222
Stream size : 1.95 GiB (67%)
Title : BDRip by AFM [RuTracker.org]
Writing library : x264 core 148 r2665+53 6629127 t_mod_Custom [8-bit@all X86_64]
Encoding settings : cabac=1 / ref=10 / deblock=1:-3:-3 / analyse=0x3:0x113 / me=umh / subme=11 / psy=1 / fade_compensate=0.00 / psy_rd=1.00:0.05 / mixed_ref=1 / me_range=32 / chroma_me=1 / trellis=2 / 8x8dct=1 / cqm=0 / deadzone=21,11 / fast_pskip=0 / chroma_qp_offset=-3 / threads=6 / lookahead_threads=1 / sliced_threads=0 / nr=0 / decimate=0 / interlaced=0 / bluray_compat=0 / constrained_intra=0 / fgo=0 / bframes=15 / b_pyramid=2 / b_adapt=2 / b_bias=0 / direct=3 / weightb=1 / open_gop=0 / weightp=2 / keyint=250 / keyint_min=23 / scenecut=40 / intra_refresh=0 / rc_lookahead=40 / rc=2pass / mbtree=0 / bitrate=3010 / ratetol=1.0 / qcomp=0.65 / qpmin=0:0:0 / qpmax=69:69:69 / qpstep=4 / cplxblur=20.0 / qblur=0.5 / vbv_maxrate=50000 / vbv_bufsize=62500 / nal_hrd=none / filler=0 / ip_ratio=1.33 / pb_ratio=1.30 / aq=2:0.80 / aq-sensitivity=10.00 / aq-factor=1.00:1.00:1.00 / aq2=0 / aq3=0
Language : English
Default : Yes
Forced : No

Audio #1
ID : 2
Format : AC-3
Format/Info : Audio Coding 3
Mode extension : CM (complete main)
Format settings, Endianness : Big
Codec ID : A_AC3
Duration : 1h 35mn
Bit rate mode : Constant
Bit rate : 448 Kbps
Channel(s) : 6 channels
Channel positions : Front: L C R, Side: L R, LFE
Sampling rate : 48.0 KHz
Compression mode : Lossy
Stream size : 306 MiB (10%)
Title : Dub, AC3 5.1 ~448 kbps
Language : Russian
Default : Yes
Forced : No

Audio #2
ID : 3
Format : AC-3
Format/Info : Audio Coding 3
Mode extension : CM (complete main)
Format settings, Endianness : Big
Codec ID : A_AC3
Duration : 1h 35mn
Bit rate mode : Constant
Bit rate : 448 Kbps
Channel(s) : 6 channels
Channel positions : Front: L C R, Side: L R, LFE
Sampling rate : 48.0 KHz
Compression mode : Lossy
Stream size : 306 MiB (10%)
Title : AVO - Vizgunov, AC3 5.1 ~448 kbps
Language : Russian
Default : No
Forced : No

Audio #3
ID : 4
Format : AC-3
Format/Info : Audio Coding 3
Mode extension : CM (complete main)
Format settings, Endianness : Big
Codec ID : A_AC3
Duration : 1h 35mn
Bit rate mode : Constant
Bit rate : 448 Kbps
Channel(s) : 6 channels
Channel positions : Front: L C R, Side: L R, LFE
Sampling rate : 48.0 KHz
Compression mode : Lossy
Stream size : 306 MiB (10%)
Title : Original, AC3 5.1 ~448 kbps
Language : English
Default : No
Forced : No

Text #1
ID : 5
Format : UTF-8
Codec ID : S_TEXT/UTF8
Codec ID/Info : UTF-8 Plain Text
Language : Russian
Default : Yes
Forced : No

Text #2
ID : 6
Format : UTF-8
Codec ID : S_TEXT/UTF8
Codec ID/Info : UTF-8 Plain Text
Language : English
Default : No
Forced : No

Menu
00:00:00.000 : en:Blindness
00:04:25.265 : en:Light
00:09:29.569 : en:Cell Phone
00:15:47.071 : en:FBI
00:20:42.866 : en:Help?
00:24:55.118 : en:Get Me The Number
00:33:18.162 : en:Take The Call
00:39:27.156 : en:What About Me?
00:46:16.398 : en:Anxious
00:49:29.591 : en:It's Paul
00:55:43.340 : en:Unexpected Attack
01:03:48.074 : en:Incoming Message
01:09:30.166 : en:Terminated
01:15:34.029 : en:Losing Hope
01:23:00.475 : en:Show Blood
01:27:18.483 : en:Have To Hurry
x264 [info]: frame I:636 Avg QP:13.78 size: 45796
x264 [info]: frame P:25724 Avg QP:17.07 size: 27277
x264 [info]: frame B:110966 Avg QP:18.25 size: 12826
x264 [info]: consecutive B-frames: 2.9% 3.0% 5.6% 9.7% 10.5% 24.9% 7.8% 4.2% 4.4% 4.4% 3.7% 4.1% 3.0% 3.3% 2.0% 6.5%
x264 [info]: mb I I16..4: 32.1% 50.9% 17.0%
x264 [info]: mb P I16..4: 1.4% 13.7% 1.5% P16..4: 17.6% 14.2% 5.1% 0.0% 0.0% skip:46.5%
x264 [info]: mb B I16..4: 0.1% 3.3% 0.1% B16..8: 17.5% 8.9% 2.3% direct: 3.6% skip:64.2% L0:47.8% L1:41.9% BI:10.3%
x264 [info]: 8x8 transform intra:85.3% inter:55.5%
x264 [info]: direct mvs spatial:94.9% temporal:5.1%
x264 [info]: coded y,uvDC,uvAC intra: 84.0% 69.8% 38.9% inter: 17.9% 11.1% 3.2%
x264 [info]: i16 v,h,dc,p: 52% 9% 22% 17%
x264 [info]: i8 v,h,dc,ddl,ddr,vr,hd,vl,hu: 7% 8% 19% 9% 12% 11% 12% 10% 13%
x264 [info]: i4 v,h,dc,ddl,ddr,vr,hd,vl,hu: 11% 7% 21% 8% 12% 9% 11% 9% 12%
x264 [info]: i8c dc,h,v,p: 28% 31% 16% 25%
x264 [info]: Weighted P-Frames: Y:98.4% UV:10.0%
x264 [info]: ref P L0: 39.6% 5.5% 20.0% 9.4% 6.8% 5.4% 4.5% 3.1% 2.5% 2.3% 0.7% 0.1%
x264 [info]: ref B L0: 59.4% 15.5% 8.9% 5.0% 3.8% 3.1% 2.7% 1.2% 0.4%
x264 [info]: ref B L1: 87.9% 12.1%
x264 [info]: kb/s:3008.67


_________________



реклама партнёра


Вернуться к началу
 Профиль Отправить личное сообщение  
 
   Похожие торренты   Автор   Торрент   Размер 
В этой теме нет новых непрочитанных сообщений. Погребенный заживо / Buried [триллер, драма, детектив, 2010] BDRip 1080p, Dub+Sub

salma3

50 | 4

7.75 ГБ

В этой теме нет новых непрочитанных сообщений. Погребенный заживо / Buried [триллер, драма, детектив, 2010] HDRip, Dub [Лицензия]

salma3

275 | 8

1.46 ГБ

В этой теме нет новых непрочитанных сообщений. Кукольный дом / Dollhouse [S02] [драма, фантастика, триллер, детектив, 2009-2010] BDRip 720p, Mvo+Sub [ТВ3]

salma3

13 | 7

29.2 ГБ

В этой теме нет новых непрочитанных сообщений. Детектив Бобби / Bobby Jasoos [Триллер, драма, комедия, детектив, 2014] BDRip 720p, Dvo+Sub

salma3

122 | 42

1.4 ГБ

В этой теме нет новых непрочитанных сообщений. Без улик / Without Evidence [Триллер, детектив, драма, 1995] BDRip, Mvo

salma3

0 | 0

1.46 ГБ

В этой теме нет новых непрочитанных сообщений. Высота / Altitude [ужасы, фантастика, триллер, детектив, 2010] BDRip 720p, Dvo

salma3

91 | 18

5.66 ГБ

В этой теме нет новых непрочитанных сообщений. Красный Дракон / Red Dragon [триллер, драма, детектив, 2002] BDRip, Dub

salma3

88 | 5

1.46 ГБ


Начать новую тему Ответить на тему  [ 1 сообщение ] 




Для Мосгорсуда, Роскомнадзора и рекламодателей:: mosgorsud-torrent[собачка]yandex.ru