Торрент файл
скачать торрент магнет ссылка Добавлен: 05 мар 2016, 13:43
Размер: 1.46 ГБ
Сидеров: 7
Личеров: 2
Статус: (salma3)
Автор

СообщениеДобавлено: 05 мар 2016, 13:43 

Не в сети
Супермодератор
Аватара пользователя
Дата регистрации:
15 фев 2012, 16:44
Возраст: 27
Спасибо: 5140 / 2090
Сообщения: 17466
Уроки вождения / Driving Lessons


Страна: Великобритания
Жанр: драма, комедия
Годы выпуска: 2006
Продолжительность: 01:33:59

Перевод: Профессиональный (многоголосый закадровый)
Cубтитры: нет

Режиссер: Джереми Брок / Jeremy Brock

В ролях: Джули Уолтерс, Руперт Гринт, Лора Линни, Николас Фэррел, Джим Нортон, Мишель Дункан, Оливер Милберн, Тэмсин Эгертон

Описание: Летние каникулы Бена заняты изучением Библии, работой по дому и уроками вождения, которые он получает от своей властной и крайне религиозной матери. Это явно не может быть пределом мечтаний в семнадцать лет, но у него просто нет выбора.
Однако его расписанная по минутам жизнь начинает стремительно меняться, когда он устраивается подрабатывать у Эви, экс- первой дамы британского театра и кино. Вульгарная, с чувством собственного достоинства и полная ребячества одновременно, Эви большую часть времени проводит в саду.

Постепенно Бен втягивается в ее общество, несмотря на то, что это влечет за собой ссоры с матерью. В один прекрасный день Эви приглашает Бэна в путешествие на Эдинбургский фестиваль, где она планирует выступать. Бен, преодолев свой врожденный консерватизм, садится за руль.

Далее — путешествие, напоминающее дорогу с двусторонним движением, по которой следуют Бен и Эви, и каждый помогает друг другу двигаться вперед по жизненному пути, который у них так различен.

Доп. информация:

Качество видео: DVDRip
Формат видео: AVI
Видео: 720x384 (1.88:1), 25 fps, XviD build 73 ~1768 kbps avg, 0.26 bit/pixel
Аудио: 48 kHz, AC3 Dolby Digital, 3/2 (L,C,R,l,r) + LFE ch, ~448 kbps
General
Complete name : C:\Driving.Lessons.2006.DVDRip.MVO_by_LBS.avi
Format : AVI
Format/Info : Audio Video Interleave
File size : 1.46 GiB
Duration : 1h 33mn
Overall bit rate : 2 226 Kbps
Director : Last Boy Scout
Writing application : VirtualDubMod 1.5.10.3 | http://www.virtualdub-fr.org || (build 2550/release)
Copyright : rutracker.org 28.02.2016
Comment : DVDRip MVO

Video
ID : 0
Format : MPEG-4 Visual
Format profile : Advanced Simple@L5
Format settings, BVOP : 1
Format settings, QPel : No
Format settings, GMC : No warppoints
Format settings, Matrix : Custom
Codec ID : XVID
Codec ID/Hint : XviD
Duration : 1h 33mn
Bit rate : 1 768 Kbps
Width : 720 pixels
Height : 384 pixels
Display aspect ratio : 1.85:1
Frame rate : 25.000 fps
Color space : YUV
Chroma subsampling : 4:2:0
Bit depth : 8 bits
Scan type : Progressive
Compression mode : Lossy
Bits/(Pixel*Frame) : 0.256
Stream size : 1.16 GiB (79%)
Writing library : XviD 73

Audio
ID : 1
Format : AC-3
Format/Info : Audio Coding 3
Mode extension : CM (complete main)
Format settings, Endianness : Big
Codec ID : 2000
Duration : 1h 33mn
Bit rate mode : Constant
Bit rate : 448 Kbps
Channel(s) : 6 channels
Channel positions : Front: L C R, Side: L R, LFE
Sampling rate : 48.0 KHz
Bit depth : 16 bits
Compression mode : Lossy
Stream size : 301 MiB (20%)
Alignment : Split accross interleaves
Interleave, duration : 40 ms (1.00 video frame)
Interleave, preload duration : 500 ms


_________________



реклама партнёра


Вернуться к началу
 Профиль Отправить личное сообщение  
 
   Похожие торренты   Автор   Торрент   Размер 
В этой теме нет новых непрочитанных сообщений. Уроки вождения / Learning to Drive [драма, мелодрама, комедия, 2014] BDRip 720p, Dub [Line]

marya111

0 | 0

3.38 ГБ

В этой теме нет новых непрочитанных сообщений. Анальные Уроки #2 / Anal Lessons #2 (2014) WEB-DL

amadei

17 | 17

2.72 ГБ

В этой теме нет новых непрочитанных сообщений. Stepmom Lessons 5 / Уроки Мачехи 5 (2016) WEB-DL

amadei

43 | 17

2.14 ГБ

В этой теме нет новых непрочитанных сообщений. Контуженый, или Уроки плавания вольным стилем [серия 1-4 из 4] [драма, комедия, 2014] SATRip

Dracon

0 | 2

2.51 ГБ

В этой теме нет новых непрочитанных сообщений. Контуженый, или Уроки плавания вольным стилем [серия 1-4 из 4] [драма, комедия, 2014] HDTV 1080i

Dracon

23 | 12

14.27 ГБ

В этой теме нет новых непрочитанных сообщений. Уроки выживания (Андрей Томашевский) [2016, комедия, семейный, приключения, WEB-DLRip] iTunes

marya111

232 | 8

1.37 ГБ

В этой теме нет новых непрочитанных сообщений. Helldorados - Lessons In Decay [2014, Glam Metal, Hard Rock, MP3]

PriZraK

3 | 3

95.91 МБ


Начать новую тему Ответить на тему  [ 1 сообщение ] 




Для Мосгорсуда, Роскомнадзора и рекламодателей:: mosgorsud-torrent[собачка]yandex.ru