Торрент файл
скачать торрент магнет ссылка Добавлен: 05 мар 2016, 13:41
Размер: 1.45 ГБ
Сидеров: 3
Личеров: 2
Статус: (salma3)
Автор

СообщениеДобавлено: 05 мар 2016, 13:41 

Не в сети
Супермодератор
Аватара пользователя
Дата регистрации:
15 фев 2012, 16:44
Возраст: 27
Спасибо: 5139 / 2089
Сообщения: 17425
Страна: Германия, США, Канада
Жанр: боевик, триллер
Год выпуска: 2006
Продолжительность: 01:34:50

Перевод: Профессиональный (дублированный)
Cубтитры: нет
Оригинальная аудиодорожка: нет

Режиссер: Дэвид Р. Эллис / David R. Ellis, Лекс Халаби / Lex Halaby

В ролях: Сэмюэл Л. Джексон, Джулианна Маргулис, Натан Филлипс, Рейчел Блэнчард, Флекс Александр, Кенан Томпсон, Кейт Даллас, Лин Шэй, Брюс Джеймс, Санни Мабри и др.

Описание: На борту огромного двухпалубного Боинга, летящего над Тихим океаном, находятся безжалостные хладнокровные убийцы, множество убийц. Их задача — покончить с пассажиром, проходящим свидетелем по делу об обвинении крупного мафиозо.

Доп. информация: Наполнение кадра отличается от BD http://screenshotcomparison.com/comparison/164357

Сэмпл: http://multi-up.com/1091755

Качество видео: SATRip
Формат видео: AVI

Видео: MPEG4, XviD, 704x528 (4:3), 25.000 fps, 1 990 Kbps (0.214 bit/pixel)
Аудио: AC-3, 48.0 KHz, 2 ch, 192 Kbps, CBR
Общее
Полное имя : N:\Змеиный полет.avi
Формат : AVI
Формат/Информация : Audio Video Interleave
Размер файла : 1,45 Гбайт
Продолжительность : 1 ч. 34 м.
Общий поток : 2192 Кбит/сек
Название фильма : Змеиный полет / Snakes on a Plane (2006)
Программа кодирования : VirtualDubMod 1.5.10.2 (build 2540/release)
Библиотека кодирования : VirtualDubMod build 2540/release
Авторское право : miha2154

Видео
Идентификатор : 0
Формат : MPEG-4 Visual
Профиль формата : Advanced Simple@L5
Параметр BVOP формата : 1
Параметр QPel формата : Нет
Параметр GMC формата : Без точки перехода
Параметр матрицы формата : Выборочная
Идентификатор кодека : XVID
Идентификатор кодека/Подсказка : XviD
Продолжительность : 1 ч. 34 м.
Битрейт : 1990 Кбит/сек
Ширина : 704 пикселя
Высота : 528 пикселей
Соотношение сторон : 4:3
Частота кадров : 25,000 кадров/сек
Цветовое пространство : YUV
Субдискретизация насыщенности : 4:2:0
Битовая глубина : 8 бит
Тип развёртки : Прогрессивная
Метод сжатия : С потерями
Бит/(Пиксели*Кадры) : 0.214
Размер потока : 1,32 Гбайт (91%)
Библиотека кодирования : XviD 65

Аудио
Идентификатор : 1
Формат : AC-3
Формат/Информация : Audio Coding 3
Расширение режима : CM (complete main)
Параметр Endianness формата : Big
Идентификатор кодека : 2000
Продолжительность : 1 ч. 34 м.
Вид битрейта : Постоянный
Битрейт : 192 Кбит/сек
Каналы : 2 канала
Расположение каналов : Front: L R
Частота : 48,0 КГц
Частота кадров : 31,250 кадров/сек (1536 spf)
Метод сжатия : С потерями
Размер потока : 130 Мбайт (9%)
Выравнивание : Разделение по промежуткам
Продолжительность промежутка : 40 мс. (1,00 видеокадр)
Время предзагрузки промежутка : 500 мс.
Заголовок : Профессиональный (полное дублирование)




_________________



реклама партнёра


Вернуться к началу
 Профиль Отправить личное сообщение  
 
   Похожие торренты   Автор   Торрент   Размер 
В этой теме нет новых непрочитанных сообщений. Полет аистов / Flight of the Storks [боевик, криминал, детектив, 2012] SATRip, Mvo

salma3

16 | 1

1.56 ГБ

В этой теме нет новых непрочитанных сообщений. Abysmal Dawn - Leveling The Plane Of Existence [2011, Death Metal, MP3]

PriZraK

0 | 1

88.9 МБ

В этой теме нет новых непрочитанных сообщений. Firelord - Among The Snakes [2013, Doom, Stoner Metal, MP3]

PriZraK

0 | 1

116.04 МБ

В этой теме нет новых непрочитанных сообщений. Baby Snakes - Gunslingers [2013,Hard Rock,MP3]

PriZraK

0 | 1

93.57 МБ

В этой теме нет новых непрочитанных сообщений. Тысячелетие / Миллениум / Прерванный полет / Millennium [фантастика, триллер, драма, детектив, 1989] BDRemux 1080p, Dub+Dvo+Sub

salma3

6 | 4

22.11 ГБ

В этой теме нет новых непрочитанных сообщений. VA - Snakes & Ladders LP Part 2 [Drum & Bass, 2014] MP3, 320kbps

Dracon

7 | 2

170.62 МБ

В этой теме нет новых непрочитанных сообщений. Bad Bones - Snakes And Bones [2014, Hard-n-Heavy, MP3]

PriZraK

11 | 1

119.95 МБ


Начать новую тему Ответить на тему  [ 1 сообщение ] 




Для Мосгорсуда, Роскомнадзора и рекламодателей:: mosgorsud-torrent[собачка]yandex.ru