Торрент файл
скачать торрент магнет ссылка Добавлен: 05 мар 2016, 13:13
Размер: 1.43 ГБ
Сидеров: 1
Личеров: 1
Статус: (salma3)
Автор

СообщениеДобавлено: 05 мар 2016, 13:13 

Не в сети
Супермодератор
Аватара пользователя
Дата регистрации:
15 фев 2012, 16:44
Возраст: 28
Спасибо: 6565 / 2130
Сообщения: 43672
Страна: Австралия
Жанр: фантастика
Год выпуска: 1987
Продолжительность: 01:21:42

Перевод: Профессиональный (многоголосый закадровый)
Cубтитры: нет
Режиссер: Роб Стюарт / Rob Stewart

В ролях: Николас Райан, Имоджен Эннсли, Джон Лей, Гари Даун, Пол Блэкуэлл, ,Корнелия Фрэнсис, Даг Скруп, Сесиль Полсон, Паула Дункан, Роберт Бакстер

Описание:
Harlan, a daydreaming video store clerk with religious fanatic parents, needs more computing power for an experiment he's doing in his room. To get this power, he taps into a company supercomputer run by a slightly deranged professor doing some strange experiments of his own. Something in the two experiments gets crossed, and a future version of Harlan is brought into the present. The future-Harlan is greedy, cynical and wants to use his knowledge of the future to gain wealth and power. It's up to the present-Harlan to stop him, but how do you outwit someone who's already done what you're going to do?

Доп. информация: За предоставленный фильм (из личной коллекции) спасибо SuperDVD01

Релиз

Сэмпл: https://yadi.sk/i/Xt3uUWjqpupFL

Качество видео: TVRip
Формат видео: AVI
Видео: 512x384 (1.33:1), 25 fps, DivX MPEG-4 Low-Motion ~2260 kbps avg, 0.46 bit/pixel
Аудио: 48 kHz, AC3 Dolby Digital, 2/0 (L,R) ch, ~192 kbps
Между прошлым и будущим - Future Past [by Edich2].avi
Format : AVI
Format/Info : Audio Video Interleave
File size : 1.43 GiB
Duration : 1h 21mn
Overall bit rate : 2 509 Kbps
Movie name : Между прошлым и будущим - Future Past [by Edich2]
Director : by SuperDVD01
Writing application : VirtualDubMod 1.5.10.2 (build 2540/release)
Copyright : Edich2
Comment : RuTracker.org

Video
ID : 0
Format : MPEG-4 Visual
Codec ID : DIV3
Codec ID/Hint : DivX 3 Low
Duration : 1h 21mn
Bit rate : 2 308 Kbps
Width : 512 pixels
Height : 384 pixels
Display aspect ratio : 4:3
Frame rate : 25.000 fps
Color space : YUV
Chroma subsampling : 4:2:0
Bit depth : 8 bits
Compression mode : Lossy
Bits/(Pixel*Frame) : 0.469
Stream size : 1.32 GiB (92%)

Audio
ID : 1
Format : AC-3
Format/Info : Audio Coding 3
Mode extension : CM (complete main)
Format settings, Endianness : Big
Codec ID : 2000
Duration : 1h 21mn
Bit rate mode : Constant
Bit rate : 192 Kbps
Channel(s) : 2 channels
Channel positions : Front: L R
Sampling rate : 48.0 KHz
Frame rate : 31.250 fps (1536 spf)
Compression mode : Lossy
Stream size : 112 MiB (8%)
Alignment : Split accross interleaves
Interleave, duration : 40 ms (1.00 video frame)
Interleave, preload duratio : 500 ms




_________________
Проголосуй за трекер Открытый торрент трекер - RUS-MEDIA.ORG

Проголосуй Открытый торрент трекер - RUS-MEDIA.ORG



реклама партнёра


Вернуться к началу
 Профиль Отправить личное сообщение  
 
   Похожие торренты   Автор   Торрент   Размер 
В этой теме нет новых непрочитанных сообщений. Люди Икс: Дни минувшего будущего / X-Men: Days of Future Past (Брайан Сингер) [фантастика, фэнтези, боевик, приключения, 2014] DVD5, Dub+Sub [сжатый]

Dracon

114 | 11

4.34 ГБ

В этой теме нет новых непрочитанных сообщений. Светлое будущее 2: Ураганный огонь / A Better Tomorrow 2 [боевик, триллер, драма, 1987] HDRip, Mvo

salma3

116 | 19

1.44 ГБ

В этой теме нет новых непрочитанных сообщений. Приговор времени / Past Perfect [Фантастика, боевик, триллер, драма, 1996] DVDRip, Dvo

salma3

201 | 7

1.37 ГБ

В этой теме нет новых непрочитанных сообщений. Прошлым летом в Чулимске [Мелодрама, 2014] WEB-DLRip

salma3

168 | 42

1.37 ГБ

В этой теме нет новых непрочитанных сообщений. Удар из будущего / Future Kick [Боевик, фантастика, 1991] DVDRip-AVC, Mvo

salma3

133 | 33

1.51 ГБ

В этой теме нет новых непрочитанных сообщений. Прошлым летом [2017 г., Amateur, Homemade, Russian, CamRip]

Dievas

267 | 40

50.02 МБ

В этой теме нет новых непрочитанных сообщений. Человек будущего / Future Man [S01] [фантастика, комедия. 2017] WEBRip 720p, Mvo [BaibaKo]

salma3

59 | 45

8.79 ГБ


Начать новую тему Ответить на тему  [ 1 сообщение ] 




Для Мосгорсуда, Роскомнадзора и рекламодателей:: mosgorsud-torrent[собачка]yandex.ru