Торрент файл
скачать торрент магнет ссылка Добавлен: 04 мар 2016, 21:42
Размер: 1.45 ГБ
Сидеров: 4
Личеров: 1
Статус: (salma3)
Автор

СообщениеДобавлено: 04 мар 2016, 21:42 

В сети
Супермодератор
Аватара пользователя
Дата регистрации:
15 фев 2012, 16:44
Возраст: 29
Спасибо: 7379 / 2147
Сообщения: 75994
Страна: США
Жанр: Мелодрама , драма
Год выпуска: 1989
Продолжительность: 1:35:28

Перевод: Профессиональный (двухголосый закадровый) НТВ
Cубтитры: нет
Режиссер: Николас Роуг / Nicolas Roeg

В ролях: Элизабет Тейлор , Марк Хэрмон, Валери Перрайн, Кевин Гир, Сеймур Кэссел, Ронни Клер Эдвардс, Шерил Пэрис, Рип Торн, Чарльз Люсия, Тедди Уилсон

Описание: Молодой человек по имени Чэнс Вэйн постоянно сопровождает стареющую и выпивающую кинозвезду Александру дель Лаго, которая, по мнению героя, сможет открыть ему двери в Голливуд. Однажды вместе с ней он прибывает в маленький городок своего детства. Именно здесь Чэнс когда-то оставил свою любимую девушку, чей властный и влиятельный отец до сих пор испытывает самые гневные чувства по отношению к главному герою.

Доп. информация: За звуковую дорожку благодарность Andrei Orlovich

Сэмпл: https://www.sendspace.com/file/48gtkg

Качество видео: DVDRip
Формат видео: AVI

Видео: XviD MPEG-4 , 640x480 (1.33:1) , 23.976 fps , 1 977 Kbps
Аудио: АC3 , 48 kHz , 192.00 kbps avg , 2/0 (L,R) ch
Complete name Сладкоголосая птица юности 1989.avi
Format : AVI
Format/Info : Audio Video Interleave
File size : 1.45 GiB
Duration : 1h 35mn
Overall bit rate : 2 178 Kbps
Writing application : VirtualDubMod 1.5.10.3 | http://www.virtualdub-fr.org || (build 2550/release)
Writing library : VirtualDub build 35491/release

Video
ID : 0
Format : MPEG-4 Visual
Format profile : Advanced Simple@L5
Format settings, BVOP : 1
Format settings, QPel : No
Format settings, GMC : No warppoints
Format settings, Matrix : Custom
Codec ID : XVID
Codec ID/Hint : XviD
Duration : 1h 35mn
Bit rate : 1 977 Kbps
Width : 640 pixels
Height : 480 pixels
Display aspect ratio : 4:3
Frame rate : 23.976 (24000/1001) fps
Color space : YUV
Chroma subsampling : 4:2:0
Bit depth : 8 bits
Scan type : Progressive
Compression mode : Lossy
Bits/(Pixel*Frame) : 0.268
Stream size : 1.32 GiB (91%)
Writing library : XviD 73

Audio
ID : 1
Format : AC-3
Format/Info : Audio Coding 3
Mode extension : CM (complete main)
Format settings, Endianness : Big
Codec ID : 2000
Duration : 1h 35mn
Bit rate mode : Constant
Bit rate : 192 Kbps
Channel(s) : 2 channels
Channel positions : Front: L R
Sampling rate : 48.0 KHz
Frame rate : 31.250 fps (1536 spf)
Compression mode : Lossy
Stream size : 131 MiB (9%)
Alignment : Aligned on interleaves
Interleave, duration : 42 ms (1.00 video frame)
Interleave, preload duratio : 512 ms


_________________
Проголосуй за трекер Открытый торрент трекер - RUS-MEDIA.ORG

Проголосуй Открытый торрент трекер - RUS-MEDIA.ORG


Вернуться к началу
 Профиль Отправить личное сообщение  
 
   Похожие торренты   Автор   Торрент   Размер 
В этой теме нет новых непрочитанных сообщений. Птица / Bird [драма, биография, музыка, 1988] WEB-DL 1080p, Mvo

salma3

0 | 0

14.12 ГБ

В этой теме нет новых непрочитанных сообщений. Nat Geo Wild: Птица-динозавр / Dino-Bird (2017) HDTVRip | P1

salma3

0 | 0

620.63 МБ

В этой теме нет новых непрочитанных сообщений. Nat Geo Wild: Птица-динозавр / Dino-Bird (2017) HDTVRip-AVC | P1

salma3

0 | 0

835.19 МБ

В этой теме нет новых непрочитанных сообщений. Nat Geo Wild: Птица-динозавр / Dino-Bird (2017) HDTV 1080i | P1

salma3

0 | 0

1.4 ГБ

В этой теме нет новых непрочитанных сообщений. The Night Bird \ Sex Club / Ночная птица (Felix Daniels) [1977 г., Classic, WEB-DL]

salma3

5 | 1

1.79 ГБ

В этой теме нет новых непрочитанных сообщений. Птица с хрустальным оперением / The Bird with the Crystal Plumage [Триллер, детектив, 1970] BDRemux 1080p, Dvo

salma3

0 | 0

30.19 ГБ

В этой теме нет новых непрочитанных сообщений. Двое / Deux [драма, мелодрама, 1989] DVDRip, Mvo

salma3

16 | 14

2.01 ГБ


Начать новую тему Ответить на тему  [ 1 сообщение ] 




Для Мосгорсуда, Роскомнадзора и рекламодателей:: mosgorsud-torrent[собачка]yandex.ru
cron