Торрент файл
скачать торрент магнет ссылка Добавлен: 04 мар 2016, 13:13
Размер: 1.45 ГБ
Сидеров: 35
Личеров: 7
Статус: (salma3)
Автор

СообщениеДобавлено: 04 мар 2016, 13:13 

Не в сети
Супермодератор
Аватара пользователя
Дата регистрации:
15 фев 2012, 16:44
Возраст: 27
Спасибо: 5121 / 2089
Сообщения: 17342
Страна: США
Жанр: Триллер, детектив
Год выпуска: 2015
Продолжительность: 01:51:39
Перевод: Профессиональный (дублированный) iTunes
Cубтитры: нет
Режиссер: Билли Рэй / Billy Ray
В ролях: Чиветель Эджиофор, Николь Кидман, Джулия Робертс, Дин Норрис, Альфред Молина, Джо Коул, Майкл Келли, Зои Грэм, Патрик Дэвис, Эйлин Фогарти
Описание: Привычное течение жизни дружной команды федералов нарушает страшная трагедия: жестоко убита дочь следователя Джесс… Доказательств недостаточно, и подозреваемого приходится отпустить. Но Рэй, напарник Джесс, безнадежно влюбленный в их начальницу, не оставляет попыток докопаться до истины. И вот спустя десятилетие появляется шанс раскрыть тайну гибели девушки. У правосудия, мести и любви нет сроков давности.
l
Качество видео: HDRip | от Scarabey
Формат видео: AVI
Видео: 720x304 (2.37:1), 23.976 fps, XviD build 73, 1462 Kbps, 0.28 bit/pixel
Аудио: 48 kHz, AC3 Dolby Digital, 3/2 (L,C,R,l,r) + LFE ch, 384.00 Kbps
General
Complete name : Downloads\Tayna.v.ih.glazah.2015.HDRip.avi
Format : AVI
Format/Info : Audio Video Interleave
File size : 1.45 GiB
Duration : 1h 51mn
Overall bit rate : 1 855 Kbps
Writing application : VirtualDubMod 1.5.10.2 (build 2540/release)
Writing library : VirtualDubMod build 2540/release
Video #0
ID : 0
Format : MPEG-4 Visual
Format profile : Advanced Simple@L5
Format settings, BVOP : 1
Format settings, QPel : No
Format settings, GMC : No warppoints
Format settings, Matrix : Custom
Codec ID : XVID
Codec ID/Hint : XviD
Duration : 1h 51mn
Bit rate : 1 462 Kbps
Width : 720 pixels
Height : 304 pixels
Display aspect ratio : 2.35:1
Frame rate : 23.976 fps
Color space : YUV
Chroma subsampling : 4:2:0
Bit depth : 8 bits
Scan type : Progressive
Compression mode : Lossy
Bits/(Pixel*Frame) : 0.279
Stream size : 1.14 GiB (79%)
Writing library : XviD 73
Audio #1
ID : 1
Format : AC-3
Format/Info : Audio Coding 3
Mode extension : CM (complete main)
Format settings, Endianness : Big
Codec ID : 2000
Duration : 1h 51mn
Bit rate mode : Constant
Bit rate : 384 Kbps
Channel(s) : 6 channels
Channel positions : Front: L C R, Side: L R, LFE
Sampling rate : 48.0 KHz
Bit depth : 16 bits
Compression mode : Lossy
Stream size : 306 MiB (21%)
Alignment : Split accross interleaves
Interleave, duration : 42 ms (1.00 video frame)
Interleave, preload duration : 500 ms


_________________



реклама партнёра


Вернуться к началу
 Профиль Отправить личное сообщение  
 
   Похожие торренты   Автор   Торрент   Размер 
В этой теме нет новых непрочитанных сообщений. Тайна в их глазах / Secret in Their Eyes [Триллер, детектив, 2015] HDRip, Dub

Dracon

6229 | 175

1.37 ГБ

В этой теме нет новых непрочитанных сообщений. Тайна в их глазах / Secret in Their Eyes [Триллер, детектив, 2015] BDRip 720p, Dub

Dracon

729 | 11

5.76 ГБ

В этой теме нет новых непрочитанных сообщений. Тайна в его глазах / El secreto de sus ojos [триллер, драма, детектив, 2009] BDRip 720p, Mvo+2Avo+Sub

salma3

44 | 12

5.18 ГБ

В этой теме нет новых непрочитанных сообщений. Невероятная тайна Лулу / Loulou, l'incroyable secret (Эрик Омон) [мультфильм, семейный, 2013] HDRip, Dub [iTunes]

Dracon

494 | 63

1.37 ГБ

В этой теме нет новых непрочитанных сообщений. В твоих глазах / In Your Eyes [фантастика, мелодрама, 2014] BDRip, Mvo

salma3

241 | 65

1.46 ГБ

В этой теме нет новых непрочитанных сообщений. Невероятная тайна Лулу / Loulou, l'incroyable secret (Эрик Омон) [мультфильм, семейный, 2013] BDRip 1080p, Dub [iTunes]

Dracon

273 | 60

4.59 ГБ

В этой теме нет новых непрочитанных сообщений. В твоих глазах / In Your Eyes [фантастика, мелодрама, 2014] BDRip 1080p, Mvo

salma3

12 | 3

9.7 ГБ


Начать новую тему Ответить на тему  [ 1 сообщение ] 




Для Мосгорсуда, Роскомнадзора и рекламодателей:: mosgorsud-torrent[собачка]yandex.ru