Торрент файл
скачать торрент магнет ссылка Добавлен: 03 мар 2016, 22:08
Размер: 2.69 ГБ
Сидеров: 3364
Личеров: 497
Статус: (salma3)
Автор

СообщениеДобавлено: 03 мар 2016, 22:08 

Не в сети
Супермодератор
Аватара пользователя
Дата регистрации:
15 фев 2012, 16:44
Возраст: 27
Спасибо: 5143 / 2090
Сообщения: 17478
Год выхода: 2015
Жанр: боевик, триллер, драма, приключения, биография, история
Режиссер: Рон Ховард

В ролях: Крис Хемсворт, Бенджамин Уокер, Киллиан Мёрфи, Брендан Глисон, Бен Уишоу, Мишель Фэйрли, Том Холланд, Пол Андерсон, Фрэнк Диллэйн, Джозеф Моул

О фильме: В 1819 году американский корабль «Эссекс» с командой из двух десятков человек на борту отправился из порта в штате Массачусетс на китобойный промысел. Осенью 1820-го успешная на протяжении полутора лет охота была прервана атакой гигантского кашалота на судно, в результате чего морякам пришлось пересесть в шлюпки. В течение трех с лишним месяцев они боролись за выживание посреди океана…



Выпущено: США, Австралия, Испания, Великобритания, Канада / Cott Productions, Enelmar Productions, Imagine Entertainment
Продолжительность: 02:01:43
Озвучивание: Дублированное [iTunes]

Файл
Качество: BDRip (AVC)
Видео: MPEG-4 AVC, 2399 Кбит/с, 1024x576
Аудио: Русский, английский (AC3, 6 ch, 384 Кбит/c)
Субтитры: Русские (форсированные, полные), английские
General
Unique ID : 224948303844433834905099621134910038147 (0xA93B77A994135EAAAA953AA2ED332083)
Complete name : C:In.the.Heart.of.the.Sea.2015.D.BDRip.AVC.ExKinoRay.mkv
Format : Matroska
Format version : Version 4 / Version 2
File size : 2.69 GiB
Duration : 2h 1mn
Overall bit rate : 3 166 Kbps
Movie name : In the Heart of the Sea 2015 from ExKinoRay
Encoded date : UTC 2016-03-03 02:31:15
Writing application : mkvmerge v6.6.0 ('The Edge Of The In Between') built on Dec 1 2013 17:55:00
Writing library : libebml v1.3.0 + libmatroska v1.4.1
Video
ID : 1
Format : AVC
Format/Info : Advanced Video Codec
Format profile : High@L4.1
Format settings, CABAC : Yes
Format settings, ReFrames : 12 frames
Codec ID : V_MPEG4/ISO/AVC
Duration : 2h 1mn
Bit rate : 2 399 Kbps
Width : 1 024 pixels
Height : 576 pixels
Display aspect ratio : 16:9
Frame rate mode : Constant
Frame rate : 23.976 fps
Color space : YUV
Chroma subsampling : 4:2:0
Bit depth : 8 bits
Scan type : Progressive
Bits/(Pixel*Frame) : 0.170
Stream size : 1.99 GiB (74%)
Title : Enigma
Writing library : x264 core 133 r2334 a3ac64b
Encoding settings : cabac=1 / ref=12 / deblock=1:-2:-2 / analyse=0x3:0x113 / me=umh / subme=10 / psy=1 / psy_rd=1.05:0.15 / mixed_ref=1 / me_range=32 / chroma_me=1 / trellis=2 / 8x8dct=1 / cqm=0 / deadzone=21,11 / fast_pskip=0 / chroma_qp_offset=-3 / threads=12 / lookahead_threads=2 / sliced_threads=0 / nr=0 / decimate=0 / interlaced=0 / bluray_compat=0 / constrained_intra=0 / bframes=9 / b_pyramid=2 / b_adapt=2 / b_bias=0 / direct=3 / weightb=1 / open_gop=0 / weightp=2 / keyint=240 / keyint_min=23 / scenecut=40 / intra_refresh=0 / rc_lookahead=40 / rc=2pass / mbtree=0 / bitrate=2399 / ratetol=1.0 / qcomp=0.65 / qpmin=0 / qpmax=51 / qpstep=4 / cplxblur=20.0 / qblur=0.5 / vbv_maxrate=50000 / vbv_bufsize=62500 / nal_hrd=none / ip_ratio=1.40 / pb_ratio=1.30 / aq=1:1.00
Language : English
Default : Yes
Forced : No
Color primaries : BT.709
Transfer characteristics : BT.709
Matrix coefficients : BT.709
Audio #1
ID : 2
Format : AC-3
Format/Info : Audio Coding 3
Mode extension : CM (complete main)
Format settings, Endianness : Big
Codec ID : A_AC3
Duration : 2h 1mn
Bit rate mode : Constant
Bit rate : 384 Kbps
Channel(s) : 6 channels
Channel positions : Front: L C R, Side: L R, LFE
Sampling rate : 48.0 KHz
Bit depth : 16 bits
Compression mode : Lossy
Stream size : 334 MiB (12%)
Title : Dub (iTunes)
Language : Russian
Default : Yes
Forced : No
Audio #2
ID : 3
Format : AC-3
Format/Info : Audio Coding 3
Mode extension : CM (complete main)
Format settings, Endianness : Big
Codec ID : A_AC3
Duration : 2h 1mn
Bit rate mode : Constant
Bit rate : 384 Kbps
Channel(s) : 6 channels
Channel positions : Front: L C R, Side: L R, LFE
Sampling rate : 48.0 KHz
Bit depth : 16 bits
Compression mode : Lossy
Stream size : 334 MiB (12%)
Language : English
Default : No
Forced : No
Text #1
ID : 4
Format : UTF-8
Codec ID : S_TEXT/UTF8
Codec ID/Info : UTF-8 Plain Text
Title : Forced
Language : Russian
Default : Yes
Forced : No
Text #2
ID : 5
Format : UTF-8
Codec ID : S_TEXT/UTF8
Codec ID/Info : UTF-8 Plain Text
Title : Full
Language : Russian
Default : No
Forced : No
Text #3
ID : 6
Format : UTF-8
Codec ID : S_TEXT/UTF8
Codec ID/Info : UTF-8 Plain Text
Language : English
Default : No
Forced : No
Menu
00:00:00.000 : en:Chapter 01
00:12:07.518 : en:Chapter 02
00:21:19.736 : en:Chapter 03
00:33:31.968 : en:Chapter 04
00:42:37.012 : en:Chapter 05
00:51:32.714 : en:Chapter 06
01:06:45.835 : en:Chapter 07
01:13:14.014 : en:Chapter 08
01:23:23.289 : en:Chapter 09
01:33:47.872 : en:Chapter 10
01:43:22.029 : en:Chapter 11
01:53:00.774 : en:Chapter 12
02:01:42.920 : en:Chapter 13

Релиз от: Автор релиза:


_________________



реклама партнёра


Вернуться к началу
 Профиль Отправить личное сообщение  
 
   Похожие торренты   Автор   Торрент   Размер 
В этой теме нет новых непрочитанных сообщений. В сердце моря / In the Heart of the Sea [боевик, триллер, драма, приключения, биография, история, 2015] HDRip, Dub [iTunes] [КПК]

salma3

329 | 27

577.92 МБ

В этой теме нет новых непрочитанных сообщений. В сердце моря / In the Heart of the Sea (боевик, триллер, драма, приключения, биография, история, 2015) BDRip | A

marya111

29 | 3

2.18 ГБ

В этой теме нет новых непрочитанных сообщений. В сердце моря / In the Heart of the Sea [боевик, триллер, драма, приключения, биография, история, 2015] TS, dub

yurban

11350 | 985

1.46 ГБ

В этой теме нет новых непрочитанных сообщений. В сердце моря / In the Heart of the Sea (Рон Ховард) [2015, боевик, триллер, драма, приключения, биография, история, HDRip] Dub

Nickolas3435

18969 | 903

1.46 ГБ

В этой теме нет новых непрочитанных сообщений. В сердце моря / In the Heart of the Sea (Рон Ховард) [2015, боевик, триллер, драма, приключения, биография, история, HDRip] Dub

Nickolas3435

2703 | 56

2.19 ГБ

В этой теме нет новых непрочитанных сообщений. Её сердце / A Mighty Heart [триллер, драма, военный, биография, история, 2007] BDRip-AVC, Dvo

salma3

30 | 6

1.37 ГБ

В этой теме нет новых непрочитанных сообщений. Её сердце / A Mighty Heart [триллер, драма, военный, биография, история, 2007] Blu-Ray, Mvo+Sub

salma3

7 | 8

34.4 ГБ


Начать новую тему Ответить на тему  [ 1 сообщение ] 




Для Мосгорсуда, Роскомнадзора и рекламодателей:: mosgorsud-torrent[собачка]yandex.ru