Торрент файл
скачать торрент магнет ссылка Добавлен: 03 мар 2016, 21:59
Размер: 2.65 ГБ
Сидеров: 1162
Личеров: 193
Статус: (salma3)
Автор

СообщениеДобавлено: 03 мар 2016, 21:59 

Не в сети
Супермодератор
Аватара пользователя
Дата регистрации:
15 фев 2012, 16:44
Возраст: 28
Спасибо: 6589 / 2145
Сообщения: 44145
Молодость / Youth

Перевод: Профессиональный (полное дублирование) лицензия
Субтитры: Русские, английские, немецкие, французские, итальянские, голландские, испанские
Формат: BDRip-AVC, MKV, H.264, AC3
Страна: Италия, Франция, Швейцария, Великобритания
Режиссер: Паоло Соррентино
Жанр: драма, комедия
Продолжительность: 02:03:33
Год выпуска: 2015

В ролях: Майкл Кейн, Харви Кейтель, Рэйчел Вайс, Пол Дано, Джейн Фонда, Марк Козелек, Роберт Ситалер, Алекс МакКуин, Луна Зимич Мийович, Том Липински

Описание: Фрэд — прославленный композитор и дирижер, вопреки просьбам Ее Величества, отказывается выступить на Дне Рождении принца Филиппа, и на это у него есть веская причина. Мик, оскароносный режиссер, вовсю работает над новым сценарием «фильма-откровения», но дело не слишком спорится.
Фрэд и Мик уже полвека дружат, смеются над собой и дивятся красоте и несправедливости этого мира. Это лето они проводят на альпийском курорте, где любовные переживания уже взрослых детей, случайно подсмотренные драмы и откровения далекого прошлого навсегда изменят судьбы друзей.




Видео: 1024x432 (2.35:1), 23.976 fps, AVC MPEG-4 (H.264), ~2170 kbps, 0.205 bit/pixel
Аудио #1: Русский: 48 kHz, AC3 Dolby Digital, 3/2 (L,C,R,l,r) + LFE ch, ~448 kbps [Профессиональный (полное дублирование)]
Аудио #2: Английский: 48 kHz, AC3 Dolby Digital, 3/2 (L,C,R,l,r) + LFE ch, ~448 kbps [Оригинал]

General
Unique ID : 184395497179487154300695021373861100393 (0x8AB947ED2DD4456D87330C29A8BB7B69)
Complete name : Youth.2015.x264.BDRip.576p.Rus.Eng.mkv
Format : Matroska
Format version : Version 4 / Version 2
File size : 2.65 GiB
Duration : 2h 3mn
Overall bit rate : 3 067 Kbps
Movie name : Молодость (2015) [AVC]
Encoded date : UTC 2016-03-03 01:19:20
Writing application : mkvmerge v8.9.0 ('Father Daughter') 64bit
Writing library : libebml v1.3.3 + libmatroska v1.4.4
Attachements : Cover.jpg

Video
ID : 1
Format : AVC
Format/Info : Advanced Video Codec
Format profile :
Format settings, CABAC : Yes
Format settings, ReFrames : 5 frames
Codec ID : V_MPEG4/ISO/AVC
Duration : 2h 3mn
Bit rate : 2 170 Kbps
Width : 1 024 pixels
Height : 432 pixels
Display aspect ratio : 2.35:1
Original display aspect ratio : 2.35:1
Frame rate mode : Constant
Frame rate : 23.976 (24000/1001) fps
Color space : YUV
Chroma subsampling : 4:2:0
Bit depth : 8 bits
Scan type : Progressive
Bits/(Pixel*Frame) : 0.205
Stream size : 1.87 GiB (71%)
Title : Youth (2015)
Writing library : x264 core 148 r2665kMod a01e339
Encoding settings : cabac=1 / ref=6 / deblock=1:0:0 / analyse=0x3:0x133 / me=umh / subme=10 / psy=1 / fade_compensate=0.00 / psy_rd=1.00:0.00 / mixed_ref=1 / me_range=24 / chroma_me=1 / trellis=2 / 8x8dct=1 / cqm=0 / deadzone=21,11 / fast_pskip=1 / chroma_qp_offset=-2 / threads=8 / lookahead_threads=1 / sliced_threads=0 / nr=0 / decimate=1 / interlaced=0 / bluray_compat=1 / constrained_intra=0 / fgo=0 / bframes=3 / b_pyramid=1 / b_adapt=2 / b_bias=0 / direct=3 / weightb=1 / open_gop=0 / weightp=1 / keyint=250 / keyint_min=1 / scenecut=40 / intra_refresh=0 / rc_lookahead=60 / rc=2pass / mbtree=1 / bitrate=2170 / ratetol=1.0 / qcomp=0.60 / qpmin=0 / qpmax=69 / qpstep=4 / cplxblur=20.0 / qblur=0.5 / ip_ratio=1.40 / aq=1:1.00
Language : English
Default : Yes
Forced : No

Audio #1
ID : 2
Format : AC-3
Format/Info : Audio Coding 3
Mode extension : CM (complete main)
Format settings, Endianness : Big
Codec ID : A_AC3
Duration : 2h 3mn
Bit rate mode : Constant
Bit rate : 448 Kbps
Channel(s) : 6 channels
Channel positions : Front: L C R, Side: L R, LFE
Sampling rate : 48.0 KHz
Frame rate : 31.250 fps (1536 spf)
Compression mode : Lossy
Stream size : 396 MiB (15%)
Title : DUB DVD-R5 AC3 5.1 48kHz@448kbps
Language : Russian
Default : Yes
Forced : No

Audio #2
ID : 3
Format : AC-3
Format/Info : Audio Coding 3
Mode extension : CM (complete main)
Format settings, Endianness : Big
Codec ID : A_AC3
Duration : 2h 3mn
Bit rate mode : Constant
Bit rate : 448 Kbps
Channel(s) : 6 channels
Channel positions : Front: L C R, Side: L R, LFE
Sampling rate : 48.0 KHz
Frame rate : 31.250 fps (1536 spf)
Compression mode : Lossy
Stream size : 396 MiB (15%)
Title : Original - AC3 5.1 48kHz@448kbps
Language : English
Default : No
Forced : No

Text #1
ID : 4
Format : UTF-8
Codec ID : S_TEXT/UTF8
Codec ID/Info : UTF-8 Plain Text
Duration : 1h 53mn
Bit rate : 0 bps
Count of elements : 6
Stream size : 152 Bytes (0%)
Title : Forced
Language : English
Default : Yes
Forced : Yes

Text #2
ID : 5
Format : UTF-8
Codec ID : S_TEXT/UTF8
Codec ID/Info : UTF-8 Plain Text
Duration : 1h 59mn
Bit rate : 70 bps
Count of elements : 1076
Stream size : 61.8 KiB (0%)
Language : Russian
Default : No
Forced : No

Text #3
ID : 6
Format : UTF-8
Codec ID : S_TEXT/UTF8
Codec ID/Info : UTF-8 Plain Text
Duration : 1h 56mn
Bit rate : 46 bps
Count of elements : 1068
Stream size : 39.5 KiB (0%)
Language : English
Default : No
Forced : No

Text #4
ID : 7
Format : UTF-8
Codec ID : S_TEXT/UTF8
Codec ID/Info : UTF-8 Plain Text
Duration : 1h 56mn
Bit rate : 43 bps
Count of elements : 1244
Stream size : 37.1 KiB (0%)
Language : German
Default : No
Forced : No

Text #5
ID : 8
Format : UTF-8
Codec ID : S_TEXT/UTF8
Codec ID/Info : UTF-8 Plain Text
Duration : 1h 56mn
Bit rate : 48 bps
Count of elements : 1107
Stream size : 41.4 KiB (0%)
Language : French
Default : No
Forced : No

Text #6
ID : 9
Format : UTF-8
Codec ID : S_TEXT/UTF8
Codec ID/Info : UTF-8 Plain Text
Duration : 1h 56mn
Bit rate : 42 bps
Count of elements : 1071
Stream size : 36.4 KiB (0%)
Language : Italian
Default : No
Forced : No

Text #7
ID : 10
Format : UTF-8
Codec ID : S_TEXT/UTF8
Codec ID/Info : UTF-8 Plain Text
Duration : 1h 56mn
Bit rate : 47 bps
Count of elements : 1069
Stream size : 40.7 KiB (0%)
Language : Dutch
Default : No
Forced : No

Text #8
ID : 11
Format : UTF-8
Codec ID : S_TEXT/UTF8
Codec ID/Info : UTF-8 Plain Text
Duration : 1h 56mn
Bit rate : 44 bps
Count of elements : 999
Stream size : 37.9 KiB (0%)
Language : Spanish
Default : No
Forced : No

Menu
00:00:00.000 : en:00:00:00
00:07:52.806 : en:00:07:52
00:13:19.549 : en:00:13:19
00:20:04.620 : en:00:20:04
00:26:32.549 : en:00:26:32
00:43:57.635 : en:00:43:57
00:47:56.332 : en:00:47:56
00:53:46.056 : en:00:53:46
00:56:47.487 : en:00:56:47
01:03:54.330 : en:01:03:54
01:15:18.180 : en:01:15:18
01:23:02.769 : en:01:23:02
01:30:32.427 : en:01:30:32
01:35:09.871 : en:01:35:09
01:43:46.053 : en:01:43:46
01:47:43.624 : en:01:47:43











_________________
Проголосуй за трекер Открытый торрент трекер - RUS-MEDIA.ORG

Проголосуй Открытый торрент трекер - RUS-MEDIA.ORG



реклама партнёра


Вернуться к началу
 Профиль Отправить личное сообщение  
 
   Похожие торренты   Автор   Торрент   Размер 
В этой теме нет новых непрочитанных сообщений. Молодость / Youth [Драма, 2015] BDRip 720p, Dub+Sub [Лицензия]

salma3

1606 | 171

4.96 ГБ

В этой теме нет новых непрочитанных сообщений. Молодость / Youth [Драма, 2015] BDRip 1080p, Dub+Sub [Лицензия]

salma3

1151 | 283

11.55 ГБ

В этой теме нет новых непрочитанных сообщений. Молодость / Youth [Драма, 2015] Blu-Ray 1080p, Dub+Sub [Лицензия]

salma3

44 | 27

27.68 ГБ

В этой теме нет новых непрочитанных сообщений. Молодость / Youth (Паоло Соррентино) [драма, 2015] HDRip, dub [Чистый звук]

Dracon

23856 | 2215

1.45 ГБ

В этой теме нет новых непрочитанных сообщений. Молодость / Youth (Паоло Соррентино / Paolo Sorrentino) [2015г., Италия, драма, BDRip 720p] Dub [Чистый звук]

Alfredovich

8219 | 813

4.69 ГБ

В этой теме нет новых непрочитанных сообщений. Молодость по страховке / Wild Oats [боевик, драма, комедия, 2015] WEB-DL 720p, Dub [ iTunes]

salma3

995 | 131

2.73 ГБ

В этой теме нет новых непрочитанных сообщений. Молодость по страховке / Wild Oats [боевик, драма, комедия, 2015] WEB-DL 1080p, Dub [ iTunes]

salma3

1542 | 202

3.05 ГБ


Начать новую тему Ответить на тему  [ 1 сообщение ] 




Для Мосгорсуда, Роскомнадзора и рекламодателей:: mosgorsud-torrent[собачка]yandex.ru