Торрент файл
скачать торрент магнет ссылка Добавлен: 03 мар 2016, 13:17
Размер: 1.45 ГБ
Сидеров: 3
Личеров: 0
Статус: (salma3)
Автор

СообщениеДобавлено: 03 мар 2016, 13:17 

В сети
Супермодератор
Аватара пользователя
Дата регистрации:
15 фев 2012, 16:44
Возраст: 27
Спасибо: 5143 / 2090
Сообщения: 17495
Страна: США
Жанр: детектив, вестерн
Год выпуска: 2000
Продолжительность: 01:37:30

Перевод: Профессиональный (многоголосый закадровый)
Cубтитры: нет
Оригинальная аудиодорожка: нет

Режиссер: Мерлин Миллер / Merlin Miller

В ролях: Марк Вэлли, Леон Коффи, Р. Ли Эрми, Лиза Стюарт, Марк Колли, Моргана Шоу, Бак Тейлор, Катери Уолкер, Кевин Степлтон
Ренни..

Описание: Находящегося при смерти Джерико спасает незнакомец, назвавшийся Джошуа. Постепенно Джерико излечивается от ран, но не может вспомнить ничего из своей прежней жизни. Его новый друг Джошуа помогает ему во всём, но подозревает, что Джерико разыскивают за ограбление и убийство шерифа.

Сэмпл: http://multi-up.com/1089703

Качество видео: SATRip
Формат видео: AVI
Видео: MPEG4, XviD, 720x544 (4:3), 25.000 fps, 1 933 Kbps (0.197 bit/pixel)
Аудио: AC-3, 48.0 KHz, 2 ch, 192 Kbps, CBR
Общее
Полное имя : N:\Джерико.avi
Формат : AVI
Формат/Информация : Audio Video Interleave
Размер файла : 1,45 Гбайт
Продолжительность : 1 ч. 37 м.
Общий поток : 2135 Кбит/сек
Название фильма : Джерико / Иерихон / Jericho (2000)
Программа кодирования : VirtualDubMod 1.5.10.2 (build 2540/release)
Библиотека кодирования : VirtualDubMod build 2540/release
Авторское право : miha2154

Видео
Идентификатор : 0
Формат : MPEG-4 Visual
Профиль формата : Advanced Simple@L5
Параметр BVOP формата : 1
Параметр QPel формата : Нет
Параметр GMC формата : Без точки перехода
Параметр матрицы формата : Выборочная
Идентификатор кодека : XVID
Идентификатор кодека/Подсказка : XviD
Продолжительность : 1 ч. 37 м.
Битрейт : 1933 Кбит/сек
Ширина : 720 пикселей
Высота : 544 пикселя
Соотношение сторон : 4:3
Частота кадров : 25,000 кадров/сек
Цветовое пространство : YUV
Субдискретизация насыщенности : 4:2:0
Битовая глубина : 8 бит
Тип развёртки : Прогрессивная
Метод сжатия : С потерями
Бит/(Пиксели*Кадры) : 0.197
Размер потока : 1,32 Гбайт (91%)
Библиотека кодирования : XviD 65

Аудио
Идентификатор : 1
Формат : AC-3
Формат/Информация : Audio Coding 3
Расширение режима : CM (complete main)
Параметр Endianness формата : Big
Идентификатор кодека : 2000
Продолжительность : 1 ч. 37 м.
Вид битрейта : Постоянный
Битрейт : 192 Кбит/сек
Каналы : 2 канала
Расположение каналов : Front: L R
Частота : 48,0 КГц
Частота кадров : 31,250 кадров/сек (1536 spf)
Метод сжатия : С потерями
Размер потока : 134 Мбайт (9%)
Выравнивание : Разделение по промежуткам
Продолжительность промежутка : 40 мс. (1,00 видеокадр)
Время предзагрузки промежутка : 500 мс.
Заголовок : Профессиональный (многоголосый закадровый)




_________________



реклама партнёра


Вернуться к началу
 Профиль Отправить личное сообщение  
 
   Похожие торренты   Автор   Торрент   Размер 
В этой теме нет новых непрочитанных сообщений. Пансион Джерико / Jericho Mansions [Триллер, драма, 2003] ВDRip 1080р, Mvo+Sub

salma3

20 | 60

7.08 ГБ

В этой теме нет новых непрочитанных сообщений. Jericho - Jericho [2010, Hard Rock, Progressive Rock, MP3]

PriZraK

0 | 1

106.7 МБ

В этой теме нет новых непрочитанных сообщений. Королева мечей / Queen of Swords [S01] [боевик, приключения, вестерн, 2000-2001] DVDRip, Mvo

salma3

5 | 6

10.78 ГБ

В этой теме нет новых непрочитанных сообщений. Шанхайский полдень / Shanghai Noon [боевик, комедия, приключения, вестерн, 2000] BDRip-AVC, Dvo

salma3

12 | 3

2.19 ГБ

В этой теме нет новых непрочитанных сообщений. Шанхайский полдень / Shanghai Noon [Боевик, комедия, приключения, вестерн, 2000] BDRip, Avo [Гаврилов]

salma3

38 | 3

1.46 ГБ

В этой теме нет новых непрочитанных сообщений. Шанхайский полдень / Shanghai Noon [Боевик, комедия, приключения, вестерн, 2000] Blu-Ray Remux 1080p, Mvo+Sub

salma3

28 | 42

22.5 ГБ

В этой теме нет новых непрочитанных сообщений. Morgana - Rose Of Jericho [2011, Epic Heavy Metal, MP3]

PriZraK

0 | 1

94.85 МБ


Начать новую тему Ответить на тему  [ 1 сообщение ] 




Для Мосгорсуда, Роскомнадзора и рекламодателей:: mosgorsud-torrent[собачка]yandex.ru