Торрент файл
скачать торрент магнет ссылка Добавлен: 03 мар 2016, 13:14
Размер: 1.45 ГБ
Сидеров: 2
Личеров: 1
Статус: (salma3)
Автор

СообщениеДобавлено: 03 мар 2016, 13:14 

Не в сети
Супермодератор
Аватара пользователя
Дата регистрации:
15 фев 2012, 16:44
Возраст: 27
Спасибо: 5856 / 2114
Сообщения: 27095
Страна: США
Жанр: Боевик, триллер, драма, приключения
Год выпуска: 1987
Продолжительность: 1:34:04

Перевод: Одноголосый закадровый
Cубтитры: нет
Режиссер: Базз Кьюлик / Buzz Kulik

В ролях: Кейт Кэпшоу, Ерун Краббе, Грегори Сьерра, Валери Махаффей, Джеймс Слойан, Клифф Де Янг, Курт Браунрайтер, Франциско Куэвас, Робин Хадис, Кимберли Кулик

Описание: Энни — учительница, работающая в школе в пригороде Лос-Анджелеса. Она уже шесть лет замужем, счастлива и любит своего мужа. Но раньше она была спецагнтом ЦРУ и работала на Кубе. Об этом не знает практически никто, даже её муж Пол Гудвин. Энни же отлично владеет испанским и обладает всеми качествами, нужными секретному агенту.
Неожиданно спокойная жизнь Энни нарушается — ей кто-то звонит и сообщает, что бывший её возлюбленный по прозвищу «Танцор», которого она когда-то спасла от верной гибели, снова в беде и нуждается в её помощи. Теперь Энни отправляется на Кубу, в одну из тюрьм, чтобы спасти «танцора» и ещё одного агента Мэлэрина.

Доп. информация: За звуковую дорожку спасибо alenavova
Произведён ремастеринг звука
Сэмпл: https://www.sendspace.com/file/2jgyf1

Качество видео: DVDRip
Формат видео: AVI
Видео: XviD , 640x480 (1.33:1) ,23.976 fps , 2 009 Kbps
Аудио: AC3 , 48 kHz , 192.00 kbps avg , 2/0 (L,R) ch
Complete name По прозвищу Танцор 1987.avi
Format : AVI
Format/Info : Audio Video Interleave
File size : 1.45 GiB
Duration : 1h 34mn
Overall bit rate : 2 210 Kbps
Writing application : VirtualDubMod 1.5.10.3 | http://www.virtualdub-fr.org || (build 2550/release)
Writing library : VirtualDub build 35491/release

Video
ID : 0
Format : MPEG-4 Visual
Format profile : Advanced Simple@L5
Format settings, BVOP : 1
Format settings, QPel : No
Format settings, GMC : No warppoints
Format settings, Matrix : Default (MPEG)
Codec ID : XVID
Codec ID/Hint : XviD
Duration : 1h 34mn
Bit rate : 2 009 Kbps
Width : 640 pixels
Height : 480 pixels
Display aspect ratio : 4:3
Frame rate : 23.976 (24000/1001) fps
Color space : YUV
Chroma subsampling : 4:2:0
Bit depth : 8 bits
Scan type : Progressive
Compression mode : Lossy
Bits/(Pixel*Frame) : 0.273
Stream size : 1.32 GiB (91%)
Writing library : XviD 73

Audio
ID : 1
Format : AC-3
Format/Info : Audio Coding 3
Mode extension : CM (complete main)
Format settings, Endianness : Big
Codec ID : 2000
Duration : 1h 34mn
Bit rate mode : Constant
Bit rate : 192 Kbps
Channel(s) : 2 channels
Channel positions : Front: L R
Sampling rate : 48.0 KHz
Frame rate : 31.250 fps (1536 spf)
Compression mode : Lossy
Stream size : 129 MiB (9%)
Alignment : Aligned on interleaves
Interleave, duration : 42 ms (1.00 video frame)
Interleave, preload duratio : 512 ms


_________________
Проголосуй за трекер Открытый торрент трекер - RUS-MEDIA.ORG




реклама партнёра


Вернуться к началу
 Профиль Отправить личное сообщение  
 
   Похожие торренты   Автор   Торрент   Размер 
В этой теме нет новых непрочитанных сообщений. ЦРУ: Операция «Алекса» / CIA Code Name: Alexa [боевик, триллер, приключения, 1992] BDRip, Avo

salma3

25 | 2

1.34 ГБ

В этой теме нет новых непрочитанных сообщений. Волкодав / По прозвищу: Росомаха / Code Name: Wolverine [Боевик, 1996] DVDRip, Avo [Живов]

salma3

2 | 0

1.37 ГБ

В этой теме нет новых непрочитанных сообщений. ЦРУ: Операция «Алекса» / CIA Code Name: Alexa [Боевик, триллер, 1992] HDRip, Mvo+Avo

salma3

52 | 1

1.47 ГБ

В этой теме нет новых непрочитанных сообщений. Код «Омега» / The Omega Code [боевик, триллер, драма, 1999] DVDRip, Mvo+Sub

salma3

14 | 3

1.46 ГБ

В этой теме нет новых непрочитанных сообщений. Невероятная жизнь Уолтера Митти / The Secret Life of Walter Mitty [фэнтези, драма, комедия, приключения, 2013] DVD5, Dub+Sub [Сжатый]

Dracon

55 | 12

4.37 ГБ

В этой теме нет новых непрочитанных сообщений. Операция Негодяй / Операция Возмездие / Operation Rogue [боевик, 2014] DVDRip, Mvo [Лицензия]

salma3

865 | 17

1.37 ГБ

В этой теме нет новых непрочитанных сообщений. Тайная жизнь домашних животных / The Secret Life of Pets [Мультфильм, комедия, приключения, семейный, 2016] DVD5, Dub

salma3

38 | 26

4.37 ГБ


Начать новую тему Ответить на тему  [ 1 сообщение ] 




Для Мосгорсуда, Роскомнадзора и рекламодателей:: mosgorsud-torrent[собачка]yandex.ru