Торрент файл
скачать торрент магнет ссылка Добавлен: 03 мар 2016, 12:58
Размер: 1.4 ГБ
Сидеров: 2
Личеров: 1
Статус: (salma3)
Автор

СообщениеДобавлено: 03 мар 2016, 12:58 

Не в сети
Супермодератор
Аватара пользователя
Дата регистрации:
15 фев 2012, 16:44
Возраст: 27
Спасибо: 5130 / 2089
Сообщения: 17350
Список приговоренных (Список жертв / Черный список) / Hit List

Страна: США
Жанр: Боевик, триллер
Год выпуска: 1989
Продолжительность: 01:23:43

Перевод: Профессиональный (дублированный) Варус Видео
Cубтитры: нет
Оригинальная аудиодорожка: английский

Режиссер: Уильям Ластиг / William Lustig

В ролях: Ян Майкл Винсент, Лео Росси, Лэнс Хенриксен, Харриет Холл, Чарльз Напьер, Рип Торн, Харолд Силвестер, Джере Бернс, Кен Лернер, Джек Андреоцци, Ник Барбаро, Роберт А. Ферретти, Лу Бонаки, Бэрри Бреннер, Джофф Брюэр, Ричард Э. Батлер, Кристофер Кэрролл, Джон Ф. Гофф, Лаури Ландри, Лиза М. Хансен, Деннис Джант, Скотт Линкольн, Джейсон Лустиг, Вик Манни, Феличе Орланди, Фрэнк Пеше, Перл Шир, Майкл Дж. Хендерсон

Описание: Когда мафиозный босс отдает приказ заставить молчать всех свидетелей за дело берется харизматичный киллер и все замолкают.. Однако с устранением последнего свидетеля происходит роковая ошибка..

Доп. информация: Релиз Lem. Оцифровка дубляжа ShevChenCo. Работа со звуком alex7691
Отсутствует перевод 3 мин. в начале (такой уж исходник, другого просто нет)

Сэмпл: http://multi-up.com/1091449

Качество видео: TVRip
Формат видео: AVI

Видео: 704x480 (1.47:1), 25 fps, DivX Codec 5.2.1 build 1328 ~2063 kbps avg, 0.24 bit/pixel
Аудио: 48 kHz, AC3 Dolby Digital, 2/0 (L,R) ch, ~192 kbps
Аудио 2: 44.100 kHz, MPEG Layer 3, 2 ch, ~128.00 kbps avg
General
Complete name : C:\TORRENTS\Hit List_1989_TVRip_Dub_Varus_Video.avi
Format : AVI
Format/Info : Audio Video Interleave
File size : 1.40 GiB
Duration : 1h 23mn
Overall bit rate : 2 398 Kbps
Writing application : VirtualDubModRus 1.5.10.2 (build 2542/release)
Writing library : VirtualDubMod build 2542/release

Video
ID : 0
Format : MPEG-4 Visual
Format settings, BVOP : 1
Format settings, QPel : No
Format settings, GMC : No warppoints
Format settings, Matrix : Default (MPEG)
Muxing mode : Packed bitstream
Codec ID : DX50
Codec ID/Hint : DivX 5
Duration : 1h 23mn
Bit rate : 2 064 Kbps
Width : 704 pixels
Height : 480 pixels
Display aspect ratio : 1.222
Original display aspect ratio : 3:2
Frame rate : 25.000 fps
Standard : NTSC
Color space : YUV
Chroma subsampling : 4:2:0
Bit depth : 8 bits
Scan type : Progressive
Compression mode : Lossy
Bits/(Pixel*Frame) : 0.244
Stream size : 1.21 GiB (86%)
Writing library : DivX 5.2.1 (WaffleDay) (UTC 2004-09-08)

Audio #1
ID : 1
Format : AC-3
Format/Info : Audio Coding 3
Mode extension : CM (complete main)
Format settings, Endianness : Big
Codec ID : 2000
Duration : 1h 23mn
Bit rate mode : Constant
Bit rate : 192 Kbps
Channel(s) : 2 channels
Channel positions : Front: L R
Sampling rate : 48.0 KHz
Bit depth : 16 bits
Compression mode : Lossy
Stream size : 115 MiB (8%)
Alignment : Split accross interleaves
Interleave, duration : 40 ms (1.00 video frame)
Interleave, preload duration : 500 ms

Audio #2
ID : 2
Format : MPEG Audio
Codec ID : 55
Codec ID/Hint : MP3
Duration : 1h 23mn
Bit rate : 128 Kbps
Channel(s) : 2 channels
Sampling rate : 44.1 KHz
Compression mode : Lossy
Stream size : 76.1 MiB (5%)
Alignment : Split accross interleaves
Interleave, duration : 40 ms (1.01 video frame)
Interleave, preload duration : 500 ms


_________________



реклама партнёра


Вернуться к началу
 Профиль Отправить личное сообщение  
 
   Похожие торренты   Автор   Торрент   Размер 
В этой теме нет новых непрочитанных сообщений. Список смертников / Kill List [ужасы, триллер, 2011] HDRip, Mvo

salma3

204 | 28

1.46 ГБ

В этой теме нет новых непрочитанных сообщений. Список смертников / Kill List [ужасы, триллер, 2011] BDRip 720p, Mvo

salma3

11 | 2

4.33 ГБ

В этой теме нет новых непрочитанных сообщений. Список смертников / Kill List [ужасы, триллер, 2011] BDRip 1080p, Mvo

salma3

2 | 2

10.94 ГБ

В этой теме нет новых непрочитанных сообщений. Убийство по заказу / The Hit List [боевик, триллер, 1993] DVDRip, Mvo

salma3

181 | 19

1.36 ГБ

В этой теме нет новых непрочитанных сообщений. Чёрный список / The Blacklist / 3 сезон 1-23 серии из 23 [триллер, детектив, боевик, 2015] WEB-DLRip, Mvo [LostFilm]

salma3

373 | 365

11.24 ГБ

В этой теме нет новых непрочитанных сообщений. Черный список / The Blacklist [S03] [Драма, криминал, боевик, триллер, детектив, 2015] WEB-DL 720p, Mvo [IdeaFilm]

salma3

5 | 37

33.03 ГБ

В этой теме нет новых непрочитанных сообщений. Черный список / The Blacklist [03х01-07 из 22] (Джо Карнахан) [2015, Драма, криминал, боевик, триллер, детектив, WEB-DLRip 1080p | LostFilm]

Dracon

36 | 88

12.71 ГБ


Начать новую тему Ответить на тему  [ 1 сообщение ] 




Для Мосгорсуда, Роскомнадзора и рекламодателей:: mosgorsud-torrent[собачка]yandex.ru