Торрент файл
скачать торрент магнет ссылка Добавлен: 03 мар 2016, 12:55
Размер: 753.76 МБ
Сидеров: 8
Личеров: 2
Статус: (salma3)
Автор

СообщениеДобавлено: 03 мар 2016, 12:55 

Не в сети
Супермодератор
Аватара пользователя
Дата регистрации:
15 фев 2012, 16:44
Возраст: 27
Спасибо: 5139 / 2089
Сообщения: 17425
Страна: США
Жанр: детектив, триллер
Год выпуска: 1994
Продолжительность: 01:31:35

Перевод: Профессиональный (многоголосый закадровый)
Cубтитры: нет
Режиссер: Майкл Робисон / Michael Robison

В ролях: Дэвид Кит, Алисса Милано, Терри Дэвид Маллигэн, Корри Кларк, Хайди Ленхарт, Пэмела Перри, Энн Уорн-Пегг

Описание: Дэвид Кит назначается шерифом в глухой городок и начинает расследовать самоубийство в старинной каталической школе для девочек. Вскоре ему становится ясно, что это не самоубийство, а убийство и не единственное. Уже при нем совершается еще целый ряд убийств среди девочек, которые "грешили" (сцены сняты достаточно откровенно). В этим местах ходят слухи о старой матери-настоятельнице, которая давно умерла, но тем не менее находится здесь, среди живых. Некоторые даже ее как будто видели. Подозрение падает на учителя латыни, уже имевшего сексуальный опыт с ученицами на предыдущем месте работы, но после того, как новое убийство совершается после его самобуийства, даже мне стало ясно, что дело закрывать рано. Сценаристы Джон Лэнгли и Малколм Барбур держат зрителя в напряжении до самого конца. (Иванов М.)

Доп. информация: Фильм из личной коллекции SuperDVD01

Релиз

Сэмпл: https://yadi.sk/i/4N6MlwWcpsFU4

Качество видео: VHSRip
Формат видео: AVI
Видео: 512x384 (1.33:1), 25 fps, XviD build 73 ~948 kbps avg, 0.19 bit/pixel
Аудио: 48 kHz, AC3 Dolby Digital, 2/0 (L,R) ch, ~192 kbps
Смертные грехи - Deadly Sins (by Edich2).avi
Format : AVI
Format/Info : Audio Video Interleave
File size : 754 MiB
Duration : 1h 31mn
Overall bit rate : 1 151 Kbps
Movie name : Смертные грехи - Deadly Sins (by Edich2)
Director : by SuperDVD01
Writing application : VirtualDubMod 1.5.10.2 (build 2540/release)
Copyright : Edich2
Comment : RuTracker.org

Video
ID : 0
Format : MPEG-4 Visual
Format profile : Advanced Simple@L5
Format settings, BVOP : 1
Format settings, QPel : No
Format settings, GMC : No warppoints
Format settings, Matrix : Custom
Codec ID : XVID
Codec ID/Hint : XviD
Duration : 1h 31mn
Bit rate : 949 Kbps
Width : 512 pixels
Height : 384 pixels
Display aspect ratio : 4:3
Frame rate : 25.000 fps
Color space : YUV
Chroma subsampling : 4:2:0
Bit depth : 8 bits
Scan type : Progressive
Compression mode : Lossy
Bits/(Pixel*Frame) : 0.193
Stream size : 622 MiB (82%)
Writing library : XviD 73

Audio
ID : 1
Format : AC-3
Format/Info : Audio Coding 3
Mode extension : CM (complete main)
Format settings, Endianness : Big
Codec ID : 2000
Duration : 1h 31mn
Bit rate mode : Constant
Bit rate : 192 Kbps
Channel(s) : 2 channels
Channel positions : Front: L R
Sampling rate : 48.0 KHz
Frame rate : 31.250 fps (1536 spf)
Compression mode : Lossy
Stream size : 126 MiB (17%)
Alignment : Split accross interleaves
Interleave, duration : 40 ms (1.00 video frame)
Interleave, preload duratio : 500 ms










_________________



реклама партнёра


Вернуться к началу
 Профиль Отправить личное сообщение  
 
   Похожие торренты   Автор   Торрент   Размер 
В этой теме нет новых непрочитанных сообщений. Любимые смертные грехи / Favorite Deadly Sins (Дэвид Джеблин, Дэнис Лири / David Jablin, Denis Leary) [1995г, комедия, DVDRip-AVC] MVO

Alfredovich

4 | 2

1.55 ГБ

В этой теме нет новых непрочитанных сообщений. В смертельной опасности / On Deadly Ground [боевик, триллер, приключения, 1994] DVDRip-AVC, Dvo [ОРТ]

salma3

0 | 4

1.55 ГБ

В этой теме нет новых непрочитанных сообщений. Грехи отца / То, что не сказано / The Unsaid [Триллер, драма, криминал, детектив, 2001] DVDRip, Avo

salma3

91 | 2

1.46 ГБ

В этой теме нет новых непрочитанных сообщений. Necrodeath - The 7 Deadly Sins [2014, Thrash Metal, Death Metal, Black Metal, MP3]

PriZraK

0 | 1

98.57 МБ

В этой теме нет новых непрочитанных сообщений. Изо всех сил / A Deadly Encounter [Детектив, Триллер, 2004] HDTVRip, Dvo

salma3

0 | 2

1.51 ГБ

В этой теме нет новых непрочитанных сообщений. Одержимый / Hard Drive [Триллер, 1994] VHSRip, Avo

salma3

59 | 7

1.39 ГБ

В этой теме нет новых непрочитанных сообщений. Горькая месть / Bitter Vengeance [Триллер, 1994] VHSRip, Avo

salma3

63 | 6

752.1 МБ


Начать новую тему Ответить на тему  [ 1 сообщение ] 




Для Мосгорсуда, Роскомнадзора и рекламодателей:: mosgorsud-torrent[собачка]yandex.ru