Торрент файл
скачать торрент магнет ссылка Добавлен: 02 мар 2016, 22:20
Размер: 1.33 ГБ
Сидеров: 4
Личеров: 1
Статус: (salma3)
Автор

СообщениеДобавлено: 02 мар 2016, 22:20 

Не в сети
Супермодератор
Аватара пользователя
Дата регистрации:
15 фев 2012, 16:44
Возраст: 27
Спасибо: 6233 / 2126
Сообщения: 33937
Страна: США
Жанр: Боевик
Год выпуска: 1992
Продолжительность: 1:30:34

Перевод: Авторский (одноголосый закадровый) В.Дохалов
Cубтитры: нет
Оригинальная аудиодорожка: английский

Режиссер: Ален Пэрис, Ален Плон / Alain Paris, Allen Plone

В ролях: Финн Картер, Фрэнк Горшин, Марк Сингер, Грегг Браззел, Кэтрин Хиклэнд, Кэтлин Кинмонт, Патриша Тэллман, Марджин Холден, Мишель МакКормик, Шерил Пэрис

Описание: Две сестры. Одна — мэр небольшого городка, другая дерется на ринге. И вот мэр, бравшая взятки за всякие мелкие услуги, решила заявить в ФБР на своего "благодетеля", так как он зарвался и хотел захоронить радиоактивные отходы, что отравило бы постепенно весь городок. Смерть ее была ужасна — ее затравили собакой. Сестра-каратистка, которая была некоторое время в ссоре с сестрой-мэром из-за любовника — местного шерифа, начинает свое расследование, а далее развертывается стандартный сюжет о мести. (М. Иванов)

Доп. информация: За звуковую дорожку благодарность Evil ED 86
Произведён ремастеринг звука
Сэмпл: https://www.sendspace.com/file/wzbkw3

Качество видео: DVDRip
Формат видео: AVI
Видео: XviD MPEG-4 , 624x464 (1.34:1) , 23.976 fps , 1704 kbps avg
Аудио: AC3 , 48 kHz , 192.00 kbps avg , 2/0 (L,R) ch (RUS)
Аудио 2: AC3 , 48 kHz , 192.00 kbps avg , 2/0 (L,R) ch (ENG)
Complete name Сладкое правосудие 1992.avi
Format : AVI
Format/Info : Audio Video Interleave
File size : 1.33 GiB
Duration : 1h 30mn
Overall bit rate : 2 103 Kbps

Video
ID : 0
Format : MPEG-4 Visual
Format profile : Advanced Simple@L5
Format settings, BVOP : 1
Format settings, QPel : No
Format settings, GMC : No warppoints
Format settings, Matrix : Default (MPEG)
Codec ID : XVID
Codec ID/Hint : XviD
Duration : 1h 30mn
Bit rate : 1 705 Kbps
Width : 624 pixels
Height : 464 pixels
Display aspect ratio : 4:3
Frame rate : 23.976 (24000/1001) fps
Color space : YUV
Chroma subsampling : 4:2:0
Bit depth : 8 bits
Scan type : Progressive
Compression mode : Lossy
Bits/(Pixel*Frame) : 0.246
Stream size : 1.08 GiB (81%)
Writing library : XviD 1.2.0.dev47 (UTC 2006-11-01)

Audio #1
ID : 1
Format : AC-3
Format/Info : Audio Coding 3
Mode extension : CM (complete main)
Format settings, Endianness : Big
Codec ID : 2000
Duration : 1h 30mn
Bit rate mode : Constant
Bit rate : 192 Kbps
Channel(s) : 2 channels
Channel positions : Front: L R
Sampling rate : 48.0 KHz
Frame rate : 31.250 fps (1536 spf)
Compression mode : Lossy
Stream size : 124 MiB (9%)
Alignment : Split accross interleaves
Interleave, duration : 42 ms (1.00 video frame)
Interleave, preload duratio : 500 ms

Audio #2
ID : 2
Format : AC-3
Format/Info : Audio Coding 3
Mode extension : CM (complete main)
Format settings, Endianness : Big
Codec ID : 2000
Duration : 1h 30mn
Bit rate mode : Constant
Bit rate : 192 Kbps
Channel(s) : 2 channels
Channel positions : Front: L R
Sampling rate : 48.0 KHz
Frame rate : 31.250 fps (1536 spf)
Compression mode : Lossy
Stream size : 124 MiB (9%)
Alignment : Aligned on interleaves
Interleave, duration : 42 ms (1.00 video frame)
Interleave, preload duratio : 512 ms


_________________
Проголосуй за трекер Открытый торрент трекер - RUS-MEDIA.ORG

Проголосуй Открытый торрент трекер - RUS-MEDIA.ORG



реклама партнёра


Вернуться к началу
 Профиль Отправить личное сообщение  
 
   Похожие торренты   Автор   Торрент   Размер 
В этой теме нет новых непрочитанных сообщений. Правосудие Стила / Steele Justice [боевик, 1987] HDTVRip, Avo

salma3

1 | 0

1.42 ГБ

В этой теме нет новых непрочитанных сообщений. Seduction So Sweet / Соблазнение Такое Сладкое (Kelly Madison, Porn Fidelity) [2017 г., All Sex, Oral, Gonzo, Big Tits, DVDRip]

max77777

21 | 4

1.04 ГБ

В этой теме нет новых непрочитанных сообщений. Sweet Trio / Сладкое Трио (DDF Video) (C.J., Abbie Cat, Cherry Jul, Sabrina, Aneta...) [2012 г., All Sex, Anal, Gonzo, Threesomes, WEB-DL 720p]

kite

24 | 11

2.18 ГБ

В этой теме нет новых непрочитанных сообщений. Правосудие для всех / ...And Justice for All [триллер, драма, криминал, 1979] BDRip, Mvo [Первый кана]

salma3

21 | 17

1.46 ГБ

В этой теме нет новых непрочитанных сообщений. Правосудие Чикаго / Chicago Justice [01x12 из 14] [Драма, криминал, 2017] WEBRip, Mvo [IdeaFilm]

salma3

20 | 22

7.85 ГБ

В этой теме нет новых непрочитанных сообщений. Сердце справедливости / The Heart of Justice [триллер, драма, криминал, детектив, 1992] HDTVRip, Mvo

salma3

47 | 15

1.45 ГБ

В этой теме нет новых непрочитанных сообщений. Игра в полицейских / Raw Justice [боевик, триллер, 1994] DVDRip, Avo

salma3

225 | 113

1.45 ГБ


Начать новую тему Ответить на тему  [ 1 сообщение ] 




Для Мосгорсуда, Роскомнадзора и рекламодателей:: mosgorsud-torrent[собачка]yandex.ru