Торрент файл
скачать торрент магнет ссылка Добавлен: 02 мар 2016, 21:51
Размер: 1.33 ГБ
Сидеров: 1746
Личеров: 221
Статус: (salma3)
Автор

СообщениеДобавлено: 02 мар 2016, 21:51 

Не в сети
Супермодератор
Аватара пользователя
Дата регистрации:
15 фев 2012, 16:44
Возраст: 28
Спасибо: 7224 / 2147
Сообщения: 68058
Год выхода: 2016
Жанр: фэнтези, боевик, драма, приключения
Режиссер: Юэнь Воо-пин

В ролях: Донни Ен, Мишель Йео, Гарри Шам мл., Джейсон Скотт Ли, Евгения Йуан, Жужу Чан, Крис Пэнг, Дэррил Квон, Роджер Йуан, Yoson An

О фильме:
История об утраченной любви, юной любви, легендарном мече и единственном шансе на спасение.



Страна: США , Китай
Продолжительность: 01:40:29
Перевод: Любительское (многоголосное) [Parovoz Production]

Файл
Кодек: x264
Качество: WEB-DLRip-AVC
Видео: AVC, 1024x510 (2.008), 23.976 fps, 1 696 Kbps (0.135 bit/pixel)
Звук: AC-3, 48.0 KHz, 2 ch, 192 Kbps, CBR
Субтитры: Отсутствуют

Семпл
Релиз без реклам...
Общее
Уникальный идентификатор : 183466439660815950149823927068878511856 (0x8A0659DAB234D41F9417CF07C7491EF0)
Полное имя : H:Kradushhijsja tigr.2016.WEB-DLRip-AVC.mkv
Формат : Matroska
Версия формата : Version 4 / Version 2
Размер файла : 1,33 Гбайт
Продолжительность : 1 ч. 40 м.
Общий поток : 1888 Кбит/сек
Дата кодирования : UTC 2016-03-02 12:25:28
Программа кодирования : mkvmerge v8.2.0 ('World of Adventure') 64bit
Библиотека кодирования : libebml v1.3.1 + libmatroska v1.4.2
Видео
Идентификатор : 1
Формат : AVC
Формат/Информация : Advanced Video Codec
Профиль формата : High@L4.1
Параметр CABAC формата : Да
Параметр ReFrames формата : 8 кадров
Идентификатор кодека : V_MPEG4/ISO/AVC
Продолжительность : 1 ч. 40 м.
Битрейт : 1696 Кбит/сек
Ширина : 1024 пикселя
Высота : 510 пикселей
Соотношение сторон : 2,008
Режим частоты кадров : Постоянный
Частота кадров : 23,976 (24000/1001) кадра/сек
Частота кадров в оригинале : 23,976 (23976/1000) кадра/сек
Цветовое пространство : YUV
Субдискретизация насыщенности : 4:2:0
Битовая глубина : 8 бит
Тип развёртки : Прогрессивная
Бит/(Пиксели*Кадры) : 0.135
Размер потока : 1,19 Гбайт (90%)
Библиотека кодирования : x264 core 146 r2538 121396c
Настройки программы : cabac=1 / ref=8 / deblock=1:-2:-2 / analyse=0x3:0x113 / me=umh / subme=11 / psy=1 / psy_rd=1.00:0.20 / mixed_ref=1 / me_range=32 / chroma_me=1 / trellis=2 / 8x8dct=1 / cqm=0 / deadzone=21,11 / fast_pskip=0 / chroma_qp_offset=-3 / threads=6 / lookahead_threads=1 / sliced_threads=0 / nr=0 / decimate=0 / interlaced=0 / bluray_compat=0 / constrained_intra=0 / bframes=3 / b_pyramid=2 / b_adapt=2 / b_bias=0 / direct=3 / weightb=1 / open_gop=0 / weightp=2 / keyint=240 / keyint_min=23 / scenecut=40 / intra_refresh=0 / rc_lookahead=60 / rc=2pass / mbtree=1 / bitrate=1696 / ratetol=1.0 / qcomp=0.60 / qpmin=0 / qpmax=69 / qpstep=4 / cplxblur=20.0 / qblur=0.5 / ip_ratio=1.40 / aq=1:1.00
Default : Да
Forced : Нет
Аудио
Идентификатор : 2
Формат : AC-3
Формат/Информация : Audio Coding 3
Расширение режима : CM (complete main)
Параметр Endianness формата : Big
Идентификатор кодека : A_AC3
Продолжительность : 1 ч. 40 м.
Вид битрейта : Постоянный
Битрейт : 192 Кбит/сек
Каналы : 2 канала
Расположение каналов : Front: L R
Частота : 48,0 КГц
Частота кадров : 31,250 кадров/сек (1536 spf)
Метод сжатия : С потерями
Размер потока : 138 Мбайт (10%)
Заголовок : Rus
Язык : Russian
Default : Да
Forced : Нет


_________________
Проголосуй за трекер Открытый торрент трекер - RUS-MEDIA.ORG

Проголосуй Открытый торрент трекер - RUS-MEDIA.ORG


Вернуться к началу
 Профиль Отправить личное сообщение  
 
   Похожие торренты   Автор   Торрент   Размер 
В этой теме нет новых непрочитанных сообщений. Крадущийся тигр, затаившийся дракон: Меч судьбы / Crouching Tiger, Hidden Dragon: Sword of Destiny [Фэнтези, Боевик, Драма, Приключения, 2016] WEB-DLRip 1080p, Mvo+Sub

salma3

0 | 0

6.43 ГБ

В этой теме нет новых непрочитанных сообщений. Крадущийся тигр, затаившийся дракон: Меч судьбы / Crouching Tiger, Hidden Dragon: Sword of Destiny [фэнтези, боевик, драма, приключения, 2016] WEBRip, Mvo

salma3

4514 | 467

1.45 ГБ

В этой теме нет новых непрочитанных сообщений. Крадущийся тигр, затаившийся дракон: Меч судьбы / Crouching Tiger, Hidden Dragon: Sword of Destiny [фэнтези, боевик, драма, приключения, 2016] WEBRip 720p, Mvo

salma3

5526 | 545

2.99 ГБ

В этой теме нет новых непрочитанных сообщений. Пит и его дракон / Pete's Dragon [фэнтези, приключения, семейный, 2016] HDRip, Dub [лицензия]

salma3

914 | 24

1.37 ГБ

В этой теме нет новых непрочитанных сообщений. Пит и его дракон / Pete's Dragon [фэнтези, приключения, семейный, 2016] HDRip, Dub [лицензия]

salma3

334 | 12

2.05 ГБ

В этой теме нет новых непрочитанных сообщений. Пит и его дракон / Pete's Dragon [Фэнтези, приключения, семейный, 2016] Blu-Ray EUR 1080p, Dub [лицензия]

salma3

181 | 128

38.28 ГБ

В этой теме нет новых непрочитанных сообщений. Пит и его дракон / Pete's Dragon [фэнтези, приключения, семейный, 2016] HDRip-AVC, Dub [лицензия]

salma3

540 | 10

1.45 ГБ


Начать новую тему Ответить на тему  [ 1 сообщение ] 




Для Мосгорсуда, Роскомнадзора и рекламодателей:: mosgorsud-torrent[собачка]yandex.ru
cron