Торрент файл
скачать торрент магнет ссылка Добавлен: 02 мар 2016, 12:38
Размер: 1.51 ГБ
Сидеров: 64
Личеров: 7
Статус: (salma3)
Автор

СообщениеДобавлено: 02 мар 2016, 12:38 

Не в сети
Супермодератор
Аватара пользователя
Дата регистрации:
15 фев 2012, 16:44
Возраст: 27
Спасибо: 5139 / 2090
Сообщения: 17466
Перевод: Авторский (одноголосый), субтитры: отсутствуют
Формат: WEBRip-AVC, MKV, H.264, MP3
Страна: США
Режиссер: Марк В. Каррен
Жанр: ужасы, триллер, криминал
Продолжительность: 01:17:21
Год выпуска: 2015

В ролях: Джудит О'Дэй, сара Никлин, Ханна Джонсон, Стейси Снайдер, Роберт Э. Вильгельм, Джек Стаффорд, Иван Адаме, Кристофер Паркер, Карлос Рамирес

Описание: Женщину-охранницу, попавшую в ночную смену в пустую наркологическую больницу, терроризируют сверхъестественные силы



Видео: 1280x720 (16:9), 25.000 fps, AVC (H.264), ~ 2600 Кbps, 0.113 bit/pixel
Аудио: 44.100 kHz, MPEG Layer 3, 2 ch, ~192.00 kbps avg



General
Unique ID : 220905184998778620633955607809610687750 (0xA630CA834C6599788838DDC130332506)
Complete name : C:\Xixidok\Abandoned.Dead.2015.720p.WEBRIP.x264.AC3-NoHaTE\Abandoned.Dead.2015.720p.Xixidok.mkv
Format : Matroska
Format version : Version 1
File size : 1.51 GiB
Duration : 1h 17mn
Overall bit rate : 2 795 Kbps
Encoded date : UTC
Writing application : mkvmerge v2.3.0 ('Freak U') built on Sep 8 2008 18:32:16
Writing library : Lavf55.12.0

Video
ID : 1
Format : AVC
Format/Info : Advanced Video Codec
Format profile :
Format settings, CABAC : Yes
Format settings, ReFrames : 9 frames
Codec ID : V_MPEG4/ISO/AVC
Duration : 1h 17mn
Bit rate : 2 600 Kbps
Width : 1 280 pixels
Height : 720 pixels
Display aspect ratio : 16:9
Frame rate mode : Constant
Frame rate : 25.000 fps
Color space : YUV
Chroma subsampling : 4:2:0
Bit depth : 8 bits
Scan type : Progressive
Bits/(Pixel*Frame) : 0.113
Stream size : 1.38 GiB (91%)
Writing library : x264 core 142 r2479 dd79a61
Encoding settings : cabac=1 / ref=10 / deblock=1:-3:-3 / analyse=0x3:0x133 / me=umh / subme=10 / psy=1 / psy_rd=1.00:0.20 / mixed_ref=1 / me_range=48 / chroma_me=1 / trellis=2 / 8x8dct=1 / cqm=0 / deadzone=21,11 / fast_pskip=1 / chroma_qp_offset=-3 / threads=6 / lookahead_threads=1 / sliced_threads=0 / nr=400 / decimate=1 / interlaced=0 / bluray_compat=0 / constrained_intra=0 / bframes=9 / b_pyramid=1 / b_adapt=2 / b_bias=0 / direct=2 / weightb=1 / open_gop=0 / weightp=2 / keyint=250 / keyint_min=25 / scenecut=40 / intra_refresh=0 / rc_lookahead=60 / rc=2pass / mbtree=1 / bitrate=2600 / ratetol=1.0 / qcomp=0.60 / qpmin=0 / qpmax=69 / qpstep=4 / cplxblur=20.0 / qblur=0.5 / vbv_maxrate=62500 / vbv_bufsize=78125 / nal_hrd=none / filler=0 / ip_ratio=1.40 / aq=1:1.00
Default : Yes
Forced : No
Color primaries : BT.709
Transfer characteristics : BT.709
Matrix coefficients : BT.709
Color range : Limited

Audio
ID : 2
Format : MPEG Audio
Format version : Version 1
Format profile : Layer 3
Codec ID : A_MPEG/L3
Codec ID/Hint : MP3
Duration : 1h 17mn
Bit rate mode : Constant
Bit rate : 192 Kbps
Channel(s) : 2 channels
Sampling rate : 44.1 KHz
Compression mode : Lossy
Delay relative to video : -80ms
Stream size : 107 MiB (7%)
Default : Yes
Forced : No


_________________



реклама партнёра


Вернуться к началу
 Профиль Отправить личное сообщение  
 
   Похожие торренты   Автор   Торрент   Размер 
В этой теме нет новых непрочитанных сообщений. Мёртвые и покинутые / Abandoned Dead [ужасы, триллер, криминал, 2016] WEBRip, dvo

marya111

0 | 0

1.44 ГБ

В этой теме нет новых непрочитанных сообщений. Призраки в Коннектикуте 2: Тени прошлого / The Haunting in Connecticut 2: Ghosts of Georgia [ужасы, триллер, драма, 2013] HDRip, dub [Чистый звук]

Dracon

200 | 5

1.46 ГБ

В этой теме нет новых непрочитанных сообщений. Призраки в Коннектикуте 2: Тени прошлого / The Haunting in Connecticut 2: Ghosts of Georgia (Том Элкинс) [2013, ужасы, триллер, драма, BDRip | Лицензия] Dub

Nickolas3435

454 | 23

1.45 ГБ

В этой теме нет новых непрочитанных сообщений. Призраки в Коннектикуте 2: Тени прошлого / The Haunting in Connecticut 2: Ghosts of Georgia [ужасы, триллер, драма, 2013] BDRip 1080p, dvo+dub+sub [Чистый звук]

Dracon

100 | 3

6.92 ГБ

В этой теме нет новых непрочитанных сообщений. Заброшенные / The Abandoned (The Confines) [ужасы, триллер, детектив, 2015] WEB-DLRip, dvo

Dracon

879 | 36

1.46 ГБ

В этой теме нет новых непрочитанных сообщений. Запретная Зона 3D / Bunker of the Dead [ужасы, боевик, комедия, 2015] WEBRip, Dub [Чистый звук]

salma3

370 | 17

1.36 ГБ

В этой теме нет новых непрочитанных сообщений. Сицилийский вампир / Sicilian Vampire [триллер, ужасы, драма, криминал, 2015] WEBRip, Mvo

salma3

233 | 104

1.37 ГБ


Начать новую тему Ответить на тему  [ 1 сообщение ] 




Для Мосгорсуда, Роскомнадзора и рекламодателей:: mosgorsud-torrent[собачка]yandex.ru