Торрент файл
скачать торрент магнет ссылка Добавлен: 02 мар 2016, 12:34
Размер: 5.21 ГБ
Сидеров: 1465
Личеров: 193
Статус: (salma3)
Автор

СообщениеДобавлено: 02 мар 2016, 12:34 

В сети
Супермодератор
Аватара пользователя
Дата регистрации:
15 фев 2012, 16:44
Возраст: 27
Спасибо: 5121 / 2089
Сообщения: 17282
Год выхода: 2015
Жанр: Триллер, драма, биография, исторический
Режиссер: Томас МакКарти

В ролях: Марк Руффало, Майкл Китон, Рэйчел МакАдамс, Лив Шрайбер, Джон Слэттери, Стэнли Туччи,

О фильме:
История о скандале, который потряс мир. Фильм основан на реальной истории о расследовании, проведенном журналистами газеты "The Boston Globe". В редакцию городской газеты из анонимного источника поступила информация о якобы имевших место случаях педофилии, которые происходят в местной митрополии. Служителей церкви аноним обвиняет в том, что те подвергают насилию детей, многие из которых – сироты. Однако доказательств нет, и ведущие журналисты приступают к расследованию. В назревающем скандале оказываются замешанными не только обычные священники, но и городской архиепископ. Не потому ли так неохотно идут на контакт свидетели, что попросту боятся?

Выпущено: США / Anonymous Content, First Look Media, Participant Media
Продолжительность: 02:09:08
Перевод: Профессиональный (многоголосый, закадровый) [iTunes]

Файл
Формат: MKV
Качество: BDRip-AVC
Видео: MPEG-4 AVC, 4950 kb/s, 1152x624
Аудио: Russian: AC3, 384 kb/s (6 ch) / English: AC3, 448 kb/s (6 ch)
Субтитры: English

raw [info]: 1152x624p 1:1 @ 24000/1001 fps (cfr)
x264 [info]: using SAR=1/1
x264 [info]: using cpu capabilities: MMX2 SSE2Fast SSSE3 SSE4.2 AVX
x264 [info]: profile High, level 4.1
x264 [info]: frame I:1343 Avg QP:16.18 size:118375
x264 [info]: frame P:34764 Avg QP:17.86 size: 47364
x264 [info]: frame B:149663 Avg QP:19.43 size: 19937
==========================================================================================================
Общее
Уникальный идентификатор : 252732154338578424675939118974723473317 (0xBE227140CCBFA1D8AE6DFB58C1E4BFA5)
Полное имя : D:В центре внимания_2015-BDRip-AVC.mkv
Формат : Matroska
Версия формата : Version 2
Размер файла : 5,21 Гбайт
Продолжительность : 2 ч. 9 м.
Общий поток : 5779 Кбит/сек
Дата кодирования : UTC 2016-03-01 12:38:20
Программа кодирования : mkvmerge v5.8.0 ('No Sleep / Pillow') built on Sep 2 2012 15:37:04
Библиотека кодирования : libebml v1.2.3 + libmatroska v1.3.0
Видео
Идентификатор : 1
Формат : AVC
Формат/Информация : Advanced Video Codec
Профиль формата : High@L4.1
Параметр CABAC формата : Да
Параметр ReFrames формата : 11 кадров
Идентификатор кодека : V_MPEG4/ISO/AVC
Битрейт : 4950 Кбит/сек
Ширина : 1152 пикселя
Высота : 624 пикселя
Соотношение сторон : 1,85:1
Режим частоты кадров : Переменный
Частота кадров в оригинале : 23,976 кадра/сек
Цветовое пространство : YUV
Субдискретизация насыщенности : 4:2:0
Битовая глубина : 8 бит
Тип развёртки : Прогрессивная
Бит/(Пиксели*Кадры) : 0.287
Библиотека кодирования : x264 core 148 r2638 7599210
Настройки программы : cabac=1 / ref=11 / deblock=1:-3:-3 / analyse=0x3:0x113 / me=umh / subme=10 / psy=1 / psy_rd=0.90:0.05 / mixed_ref=1 / me_range=32 / chroma_me=1 / trellis=2 / 8x8dct=1 / cqm=0 / deadzone=21,11 / fast_pskip=0 / chroma_qp_offset=-3 / threads=12 / lookahead_threads=3 / sliced_threads=0 / nr=0 / decimate=0 / interlaced=0 / bluray_compat=0 / constrained_intra=0 / bframes=12 / b_pyramid=2 / b_adapt=2 / b_bias=0 / direct=3 / weightb=1 / open_gop=0 / weightp=2 / keyint=240 / keyint_min=23 / scenecut=40 / intra_refresh=0 / rc_lookahead=40 / rc=2pass / mbtree=0 / bitrate=4950 / ratetol=1.0 / qcomp=0.65 / qpmin=0 / qpmax=39 / qpstep=4 / cplxblur=20.0 / qblur=0.5 / vbv_maxrate=50000 / vbv_bufsize=62500 / nal_hrd=none / filler=0 / ip_ratio=1.15 / pb_ratio=1.30 / aq=3:0.80
Язык : English
Default : Да
Forced : Нет
Основные цвета : BT.709
Характеристики трансфера : BT.709
Коэффициенты матрицы : BT.709
Аудио #1
Идентификатор : 2
Формат : AC-3
Формат/Информация : Audio Coding 3
Расширение режима : CM (complete main)
Параметр Endianness формата : Big
Идентификатор кодека : A_AC3
Продолжительность : 2 ч. 9 м.
Вид битрейта : Постоянный
Битрейт : 384 Кбит/сек
Каналы : 6 каналов
Расположение каналов : Front: L C R, Side: L R, LFE
Частота : 48,0 КГц
Битовая глубина : 16 бит
Метод сжатия : С потерями
Размер потока : 355 Мбайт (7%)
Заголовок : MVO - iTunes
Язык : Russian
Default : Да
Forced : Нет
Аудио #2
Идентификатор : 3
Формат : AC-3
Формат/Информация : Audio Coding 3
Расширение режима : CM (complete main)
Параметр Endianness формата : Big
Идентификатор кодека : A_AC3
Продолжительность : 2 ч. 9 м.
Вид битрейта : Постоянный
Битрейт : 448 Кбит/сек
Каналы : 6 каналов
Расположение каналов : Front: L C R, Side: L R, LFE
Частота : 48,0 КГц
Битовая глубина : 16 бит
Метод сжатия : С потерями
Размер потока : 414 Мбайт (8%)
Заголовок : Original
Язык : English
Default : Нет
Forced : Нет
Текст #1
Идентификатор : 4
Формат : UTF-8
Идентификатор кодека : S_TEXT/UTF8
Идентификатор кодека/Информация : UTF-8 Plain Text
Заголовок : Full
Язык : English
Default : Нет
Forced : Нет
Текст #2
Идентификатор : 5
Формат : UTF-8
Идентификатор кодека : S_TEXT/UTF8
Идентификатор кодека/Информация : UTF-8 Plain Text
Заголовок : SDH
Язык : English
Default : Нет
Forced : Нет
Меню
00:00:00.000 : en:Chapter 1
00:08:20.750 : en:Chapter 2
00:14:30.535 : en:Chapter 3
00:21:51.518 : en:Chapter 4
00:27:38.906 : en:Chapter 5
00:35:48.770 : en:Chapter 6
00:45:38.984 : en:Chapter 7
00:49:12.198 : en:Chapter 8
00:53:21.154 : en:Chapter 9
00:59:36.572 : en:Chapter 10
01:05:29.215 : en:Chapter 11
01:10:47.533 : en:Chapter 12
01:17:30.686 : en:Chapter 13
01:23:30.046 : en:Chapter 14
01:30:03.146 : en:Chapter 15
01:34:27.494 : en:Chapter 16
01:42:52.541 : en:Chapter 17
01:50:57.942 : en:Chapter 18
01:55:50.109 : en:Chapter 19
02:01:30.573 : en:Chapter 20
02:09:07.905 : en:Chapter 21

Релиз от: Автор релиза:


_________________



реклама партнёра


Вернуться к началу
 Профиль Отправить личное сообщение  
 
   Похожие торренты   Автор   Торрент   Размер 
В этой теме нет новых непрочитанных сообщений. В центре внимания / Spotlight [Триллер, драма, биография, исторический, 2015] WEB-DLRip, dvo

Dracon

181 | 8

1.45 ГБ

В этой теме нет новых непрочитанных сообщений. В центре внимания / Spotlight (Том МакКарти) [2015, триллер, драма, биография, история, BDRip] mvo

Nickolas3435

7336 | 699

1.46 ГБ

В этой теме нет новых непрочитанных сообщений. В центре внимания / Spotlight [драма, криминал, биография, история, 2015] BDRip, avo

marya111

32 | 9

1.46 ГБ

В этой теме нет новых непрочитанных сообщений. В центре внимания / Spotlight [драма, криминал, биография, история, 2015] BDRip 720p, MVO

marya111

64 | 14

9.34 ГБ

В этой теме нет новых непрочитанных сообщений. В центре внимания / Spotlight [триллер, драма, биография, история, 2015] BDRemux 1080p, MVO

salma3

26 | 7

33.2 ГБ

В этой теме нет новых непрочитанных сообщений. В центре внимания / Spotlight (Том МакКарти) [2015, триллер, драма, биография, история, HDRip] mvo

Nickolas3435

448 | 44

2.05 ГБ

В этой теме нет новых непрочитанных сообщений. Суфражистка / Suffragette [Драма, биография, исторический, 2015] WEB-DRip, dvo

Dracon

25 | 3

1.45 ГБ


Начать новую тему Ответить на тему  [ 1 сообщение ] 




Для Мосгорсуда, Роскомнадзора и рекламодателей:: mosgorsud-torrent[собачка]yandex.ru